Важное объявление!
У Нас Все раздачи мультитрекерные, при нуле пиров в релизах, можете смело вставать на закачку!
 
Автор Сообщение

HUNTER

Стаж:
4 года 4 месяца
Сообщений:
56733

Репутация: 101

[+] [-]
Вне форума [Профиль] [ЛС]

Камешек и пингвин / Хрусталик и пингвин / The Pebble and the Penguin-
Страна: Ирландия, США
Жанр: приключения, семейный, мультфильм
Продолжительность: 01:14:04
Год выпуска: 1995
Перевод 1: Профессиональный (дублированный) - Варус Видео
Перевод 2: Профессиональный (многоголосый закадровый) - по заказу "Первого канала"
Перевод 3: Одноголосый закадровый - Пётр Иващенко (Гланц)
Перевод 4: Авторский (одноголосый закадровый) - Юрий Живов
Перевод 5: Авторский (одноголосый закадровый) - Андрей Гаврилов
Перевод 6: Авторский (одноголосый закадровый) - Сергей Кузнецов
Перевод 7: Авторский (одноголосый закадровый) - Максим Ошурков
Русские субтитры: нет-Режиссёр: Дон Блат, Гари Голдман / Don Bluth, Gary Goldman
В ролях: Мартин Шорт, Энни Голден, Джеймс Белуши, Тим Карри, Алисса Кинг, Стиви Вэлланс, Уилл Райан, Нил Росс, Стэн Джонс, С. Скотт Баллок...- | Релиз: -Описание: Милый и застенчивый пингвин Хьюби мечтает сыграть свадьбу со своей возлюбленной Мариной. Он даже придумал, что подарить ей на брачной церемонии, - маленький изумруд. Но планы Хьюби разрушает другой пернатый житель Антарктиды, Дрейк, который тоже стремится завладеть сердцем Марины. Соперник похищает драгоценность и сбрасывает Хьюби в воду, прямо в сети браконьеров! У пленника остаются считанные часы, чтобы сбежать с корабля, вернуться домой и помешать свадьбе Марины и Дрейка.-Доп. информация:
- За исходный блюрей из личной коллекции спасибо DFCbit.
- За оцифровку дубляжа "Варус Видео" с VHS Hi-Fi спасибо bora86bora и formally.
- За перевод Юрия Живова спасибо multmir.
- За Гаврилова спасибо Фэтти, за Ошуркова спасибо vr666, за Кузнецова спасибо к сожалению, уже не помню кому.
- Запись перевода "Первого канала" с канала "Дисней" и украинского перевода с канала ТЕТ - xfiles.
- Original audio track max 24 bits, average 16 bits, most common 16 bits. Потому, русские HD дороги собраны в 16 бит.
- Работа со звуком - xfiles.-Семпл: http://sendfile.su/1172207-Качество: BDRemux 1080p
Формат: MKV
Видео: 1920x1080p (16:9), 23.976 fps, AVC, ~32026 kbps
Аудио #1: Russian, 48.0 KHz, FLAC, 2.0 ch, 16 bits - Дубляж | "Варус Видео" | VHS Hi-Fi
Аудио #2: Russian, 48.0 KHz, Dolby AC3, 1.0 ch, 192 kbps - Закадровый | По заказу "Первого канала" | Канал "Дисней"
Аудио #3: Russian, 48.0 KHz, DTS-HD MA, 5.0 ch, 2128 kbps/1509 kbps, 16 bits - Закадровый | Пётр Иващенко (Гланц)
Аудио #4: Russian, 48.0 KHz, DTS-HD MA, 5.0 ch, 2133 kbps/1509 kbps, 16 bits - Закадровый | Юрий Живов
Аудио #5: Russian, 48.0 KHz, FLAC, 1.0 ch, 340 kbps, 16 bits - Закадровый | Андрей Гаврилов | VHS
Аудио #6: Russian, 48.0 KHz, Dolby AC3, 1.0 ch, 192 kbps - Закадровый | Сергей Кузнецов | VHS
Аудио #7: Russian, 48.0 KHz, Dolby AC3, 2.0 ch, 256 kbps - Закадровый | Максим Ошурков | VHS Hi-Fi
Аудио #8: Ukrainian, 48.0 KHz, Dolby AC3, 1.0 ch, 192 kbps - Многоголосый закадровый
Аудио #9: English, 48.0 KHz, DTS-HD MA, 5.0 ch, 2203 kbps/1509 kbps, 24 bits - Original
Субтитры: English, UTF-8 - [SDH]

MediaInfo

GeneralUnique ID : 250482448153630556196999437529572758982 (0xBC712A2CADDE1E90B3001003D770D5C6)Complete name : The.Pebble.and.the.Penguin.1995.BDRemux.1080p-rutracker.xfiles.mkvFormat : MatroskaFormat version : Version 4 / Version 2File size : 20.9 GiBDuration : 1h 14mnOverall bit rate mode : VariableOverall bit rate : 40.4 MbpsMovie name : The.Pebble.and.the.Penguin.1995.BDRemux.1080p-rutracker.xfilesEncoded date : UTC 2015-11-08 15:48:29Writing application : mkvmerge v8.3.0 ('Over the Horizon') 64bitWriting library : libebml v1.3.1 + libmatroska v1.4.2
VideoID : 1Format : AVCFormat/Info : Advanced Video CodecFormat profile : High@L4.1Format settings, CABAC : YesFormat settings, ReFrames : 4 framesCodec ID : V_MPEG4/ISO/AVCDuration : 1h 14mnBit rate mode : VariableMaximum bit rate : 36.0 MbpsWidth : 1 920 pixelsHeight : 1 080 pixelsDisplay aspect ratio : 16:9Frame rate mode : ConstantFrame rate : 23.976 fpsColor space : YUVChroma subsampling : 4:2:0Bit depth : 8 bitsScan type : ProgressiveTitle : http://rutracker.org/forum/viewtopic.php?t=5112313Language : EnglishDefault : YesForced : NoColor range : LimitedColor primaries : BT.709Transfer characteristics : BT.709Matrix coefficients : BT.709
Audio #1ID : 2Format : FLACFormat/Info : Free Lossless Audio CodecCodec ID : A_FLACDuration : 1h 14mnBit rate mode : VariableChannel(s) : 2 channelsSampling rate : 48.0 KHzBit depth : 16 bitsTitle : Дубляж | "Варус Видео" | VHS Hi-FiWriting library : libFLAC 1.2.1 (UTC 2007-09-17)Language : RussianDefault : YesForced : No
Audio #2ID : 3Format : AC-3Format/Info : Audio Coding 3Mode extension : CM (complete main)Format settings, Endianness : BigCodec ID : A_AC3Duration : 1h 14mnBit rate mode : ConstantBit rate : 192 KbpsChannel(s) : 1 channelChannel positions : Front: CSampling rate : 48.0 KHzCompression mode : LossyStream size : 102 MiB (0%)Title : Закадровый | По заказу "Первого канала" | Канал "Дисней"Language : RussianDefault : NoForced : No
Audio #3ID : 4Format : DTSFormat/Info : Digital Theater SystemsFormat profile : MA / CoreMode : 16Format settings, Endianness : BigCodec ID : A_DTSDuration : 1h 14mnBit rate mode : VariableBit rate : Unknown / 1 509 KbpsChannel(s) : 5 channelsChannel positions : Front: L C R, Side: L RSampling rate : 48.0 KHzBit depth : 16 bitsCompression mode : Lossless / LossyTitle : Закадровый | Пётр Иващенко (Гланц)Language : RussianDefault : NoForced : No
Audio #4ID : 5Format : DTSFormat/Info : Digital Theater SystemsFormat profile : MA / CoreMode : 16Format settings, Endianness : BigCodec ID : A_DTSDuration : 1h 14mnBit rate mode : VariableBit rate : Unknown / 1 509 KbpsChannel(s) : 5 channelsChannel positions : Front: L C R, Side: L RSampling rate : 48.0 KHzBit depth : 16 bitsCompression mode : Lossless / LossyTitle : Закадровый | Юрий ЖивовLanguage : RussianDefault : NoForced : No
Audio #5ID : 6Format : FLACFormat/Info : Free Lossless Audio CodecCodec ID : A_FLACDuration : 1h 14mnBit rate mode : VariableChannel(s) : 1 channelSampling rate : 48.0 KHzBit depth : 16 bitsTitle : Андрей Гаврилов | VHSWriting library : libFLAC 1.2.1 (UTC 2007-09-17)Language : RussianDefault : NoForced : No
Audio #6ID : 7Format : AC-3Format/Info : Audio Coding 3Mode extension : CM (complete main)Format settings, Endianness : BigCodec ID : A_AC3Duration : 1h 14mnBit rate mode : ConstantBit rate : 192 KbpsChannel(s) : 1 channelChannel positions : Front: CSampling rate : 48.0 KHzCompression mode : LossyStream size : 102 MiB (0%)Title : Сергей Кузнецов | VHSLanguage : RussianDefault : NoForced : No
Audio #7ID : 8Format : AC-3Format/Info : Audio Coding 3Mode extension : CM (complete main)Format settings, Endianness : BigCodec ID : A_AC3Duration : 1h 14mnBit rate mode : ConstantBit rate : 256 KbpsChannel(s) : 2 channelsChannel positions : Front: L RSampling rate : 48.0 KHzCompression mode : LossyStream size : 136 MiB (1%)Title : Закадровый | Максим Ошурков | VHS Hi-FiLanguage : RussianDefault : NoForced : No
Audio #8ID : 9Format : AC-3Format/Info : Audio Coding 3Mode extension : CM (complete main)Format settings, Endianness : BigCodec ID : A_AC3Duration : 1h 14mnBit rate mode : ConstantBit rate : 192 KbpsChannel(s) : 1 channelChannel positions : Front: CSampling rate : 48.0 KHzCompression mode : LossyStream size : 102 MiB (0%)Language : UkrainianDefault : NoForced : No
Audio #9ID : 10Format : DTSFormat/Info : Digital Theater SystemsFormat profile : MA / CoreMode : 16Format settings, Endianness : BigCodec ID : A_DTSDuration : 1h 14mnBit rate mode : VariableBit rate : Unknown / 1 509 KbpsChannel(s) : 5 channelsChannel positions : Front: L C R, Side: L RSampling rate : 48.0 KHzBit depth : 24 bitsCompression mode : Lossless / LossyTitle : OriginalLanguage : EnglishDefault : NoForced : No
TextID : 11Format : UTF-8Codec ID : S_TEXT/UTF8Codec ID/Info : UTF-8 Plain TextTitle : [SDH]Language : EnglishDefault : NoForced : No
Menu00:00:00.000 : en:00:00:00.00000:05:23.406 : en:00:05:23.40600:08:10.448 : en:00:08:10.44800:11:08.960 : en:00:11:08.96000:16:22.106 : en:00:16:22.10600:19:49.313 : en:00:19:49.31300:22:08.452 : en:00:22:08.45200:25:09.007 : en:00:25:09.00700:27:41.785 : en:00:27:41.78500:33:30.175 : en:00:33:30.17500:35:05.687 : en:00:35:05.68700:39:04.300 : en:00:39:04.30000:41:39.956 : en:00:41:39.95600:44:46.809 : en:00:44:46.80900:47:12.538 : en:00:47:12.53800:51:09.024 : en:00:51:09.02400:55:18.815 : en:00:55:18.81501:00:19.825 : en:01:00:19.82501:03:42.777 : en:01:03:42.77701:07:44.352 : en:01:07:44.352

_________________
Показать сообщения:    

Текущее время: Сегодня 22:32

Часовой пояс: GMT



Вы не можете начинать темы
Вы не можете отвечать на сообщения
Вы не можете редактировать свои сообщения
Вы не можете удалять свои сообщения
Вы не можете голосовать в опросах
Вы не можете прикреплять файлы к сообщениям
Вы не можете скачивать файлы