Важное объявление!
У Нас Все раздачи мультитрекерные, при нуле пиров в релизах, можете смело вставать на закачку!
 
Автор Сообщение

димитри37

Стаж:
3 года 8 месяцев
Сообщений:
1237

Репутация: 127

[+] [-]
Вне форума [Профиль] [ЛС]

Хроники ломбарда / Pawn Shop Chronicles
Год выпуска: 2013
Производство: 01:52:25
Жанр: Боевик, Комедия
Продолжительность: 01:52:25
Перевод: Любительский одноголосый (Артём Белоконский)
Субтитры: английские (Вшитые отключаемые)
Дата мировой премьеры: 12 июля 2013
Дата российской премьеры: 29 августа 2013, «West»
Режиссер: Уэйн Крамер
Продюсер: Дэвид Мимран, Стивен Шнайдер, Джордан Шур
Актеры: Брендан Фрейзер, Элайджа Вуд, Винсент Д’Онофрио, Томас Джейн, Лукас Хаас, Норман Ридус, Мэтт Диллон, Пол Уокер, Рашель Лефевр, DJ Куаллс
Описание фильма: Рассказ пойдет о событиях, которые запустила пропажа обручального кольца — о безумных крысиных бегах, которые устроили наркоманы, скинхеды и двойник Элвиса… Всех их связывают проданные или найденные вещи из ломбарда, находящегося в небольшом южном городке.


Качество: WEB-DLRip-AVC
Контейнет: MKV
Видео: MPEG-4 AVC/H.264, 1024 х 576, ~1471 Kbps
Аудио: AC3, 6 ch, 384 Кбит/сек

x264 Log/MediaInfo:

x264 [info]: frame I:1292 Avg QP:17.27 size: 61769
x264 [info]: frame P:49260 Avg QP:20.53 size: 15537
x264 [info]: frame B:111185 Avg QP:23.79 size: 3549
Format : Matroska
Format version : Version 2
File size : 1.46 GiB
Duration : 1h 52mn
Overall bit rate : 1 857 Kbps
Encoded date : UTC 2013-08-08 10:11:11
Writing application : mkvmerge v5.3.0 ('I could have danced') built on Feb 9 2012 10:38:07
Writing library : libebml v1.2.3 + libmatroska v1.3.0
Attachment : Yes
Video
ID : 1
Format : AVC
Format/Info : Advanced Video Codec
Format profile : High@L4.1
Format settings, CABAC : Yes
Format settings, ReFrames : 5 frames
Codec ID : V_MPEG4/ISO/AVC
Duration : 1h 52mn
Bit rate : 1 471 Kbps
Width : 1 024 pixels
Height : 576 pixels
Display aspect ratio : 16:9
Frame rate mode : Constant
Frame rate : 23.976 fps
Color space : YUV
Chroma subsampling : 4:2:0
Bit depth : 8 bits
Scan type : Progressive
Bits/(Pixel*Frame) : 0.104
Stream size : 1.13 GiB (77%)
Writing library : x264 core 130 r2273 b3065e6
Encoding settings : cabac=1 / ref=5 / deblock=1:-2:-1 / analyse=0x3:0x133 / me=umh / subme=9 / psy=1 / psy_rd=1.01:0.05 / mixed_ref=1 / me_range=24 / chroma_me=1 / trellis=2 / 8x8dct=1 / cqm=0 / deadzone=21,11 / fast_pskip=1 / chroma_qp_offset=-3 / threads=12 / lookahead_threads=1 / sliced_threads=0 / nr=0 / decimate=1 / interlaced=0 / bluray_compat=0 / constrained_intra=0 / bframes=5 / b_pyramid=2 / b_adapt=2 / b_bias=0 / direct=3 / weightb=1 / open_gop=0 / weightp=2 / keyint=240 / keyint_min=23 / scenecut=40 / intra_refresh=0 / rc_lookahead=100 / rc=2pass / mbtree=1 / bitrate=1471 / ratetol=1.0 / qcomp=0.60 / qpmin=0 / qpmax=69 / qpstep=4 / cplxblur=20.0 / qblur=0.5 / ip_ratio=1.40 / aq=1:1.00
Language : English
Default : Yes
Forced : No
Audio
ID : 2
Format : AC-3
Format/Info : Audio Coding 3
Mode extension : CM (complete main)
Format settings, Endianness : Big
Codec ID : A_AC3
Duration : 1h 52mn
Bit rate mode : Constant
Bit rate : 384 Kbps
Channel(s) : 6 channels
Channel positions : Front: L C R, Side: L R, LFE
Sampling rate : 48.0 KHz
Bit depth : 16 bits
Compression mode : Lossy
Stream size : 309 MiB (21%)
Title : Любительский одноголосый
Language : Russian
Default : Yes
Forced : No
Text
ID : 3
Format : UTF-8
Codec ID : S_TEXT/UTF8
Codec ID/Info : UTF-8 Plain Text
Language : English
Default : No
Forced : No
Menu
00:00:00.000 : en:Main Title / Black Santa
00:02:45.000 : en:The Shotgun
00:13:08.000 : en:The Man
00:23:01.000 : en:Scared Of Clowns
00:29:39.000 : en:The Ring
00:37:01.000 : en:J.J. Thomason
00:50:41.000 : en:John Shaw's House
00:59:30.000 : en:Caged Love
01:12:14.000 : en:The Medallion
01:22:44.000 : en:Erwin County Fair
01:38:27.000 : en:"Open Road Is My Home"
01:44:32.000 : en:End Credits

Скриншоты

-Источник:
Показать сообщения:    

Текущее время: Сегодня 20:01

Часовой пояс: GMT



Вы не можете начинать темы
Вы не можете отвечать на сообщения
Вы не можете редактировать свои сообщения
Вы не можете удалять свои сообщения
Вы не можете голосовать в опросах
Вы не можете прикреплять файлы к сообщениям
Вы не можете скачивать файлы