Важное объявление!
У Нас Все раздачи мультитрекерные, при нуле пиров в релизах, можете смело вставать на закачку!
 
Автор Сообщение

HUNTER

Стаж:
4 года 4 месяца
Сообщений:
56798

Репутация: 101

[+] [-]
Вне форума [Профиль] [ЛС]

Хроника Крыльев (сезон второй) / Tsubasa Chronicle 2nd Season
Страна: Япония
Год выпуска: 2006 г.
Жанр: приключения, драма, фэнтези, романтика
Тип: TV
Продолжительность: 25 мин. серия
Режиссер: Масимо Койти
Студия: Bee Train
Описание: Вселенная Кламп, иной мир… В нем Сакура – принцесса дивной страны Клоу, а Сяоран – молодой археолог, неделями пропадающий на раскопках. Но и в этом мире они встретились и полюбили друг друга. Вот только счастье было недолгим – слишком уж многих привлекает сила, скрытая в принцессе. И пускай посланные убийцы не достигают цели… В пустынных руинах, куда Сакуру занесла сама судьба, за ее спиной вспыхивают радужные Крылья Памяти – и тут же сотнями ярких перьев разлетаются по иным мирам и пространствам.
Чтобы спасти любимую, вернуть ей память, Сяоран должен найти союзников и собрать разлетевшиеся Перья Души – все до одного. Таинственная Ведьма Измерений помогает ему сколотить весьма необычную команду для этой странной миссии. Правда, за услуги Юко требует высокую цену, но герои уверены – оно того стоит. Долгое странствие начинается!
© Hollow, World Art
Качество: BDRip
Тип релиза: Полухардсаб (караоке)
Формат видео: MKV
Наличие линковки: Нет
Релиз/Автор рипа: [UraharaShop]
Видео: x264, 1280x720, 1674 kbps, 23,97 fps
Аудио: mp3, 320 kbps, 44,1 KHz, 2 ch Язык Японский
Субтитры: ASS, внешние Язык субтитров русский ; Перевод: Фальгар Корректировка и оформление: Юкос (от AnimeSource.Ru)
Подробные тех. данные
ОбщееУникальный идентификатор : 219711763804529004560117267658233300517 (0xA54AF24E1EE86FAD96B5395B0EE34625)Формат : MatroskaВерсия формата : Version 4 / Version 2Размер файла : 366 МбайтПродолжительность : 25 м.Общий поток : 2045 Кбит/секДата кодирования : UTC 2013-04-11 04:48:04Программа кодирования : mkvmerge v6.1.0 ('Old Devil') built on Mar 2 2013 14:32:37Библиотека кодирования : libebml v1.3.0 + libmatroska v1.4.0Attachment : Yes / Yes / Yes / Yes / Yes / Yes / Yes / Yes / Yes / Yes / Yes / Yes / Yes / Yes / Yes / Yes / Yes / Yes / Yes / Yes / Yes / Yes / Yes / Yes / Yes / Yes / Yes / Yes / Yes / Yes / Yes / Yes / Yes / Yes / Yes / Yes / Yes / Yes / Yes / Yes / Yes / Yes / Yes / Yes / Yes
ВидеоИдентификатор : 1Формат : AVCФормат/Информация : Advanced Video CodecПрофиль формата : High@L3.1Параметр CABAC формата : ДаПараметр ReFrames формата : 4 кадраИдентификатор кодека : V_MPEG4/ISO/AVCПродолжительность : 25 м.Битрейт : 1674 Кбит/секШирина : 1280 пикселейВысота : 720 пикселейСоотношение сторон : 16:9Режим частоты кадров : ПостоянныйЧастота кадров : 23,976 кадра/секЦветовое пространство : YUVСубдискретизация насыщенности : 4:2:0Битовая глубина : 8 битТип развёртки : ПрогрессивнаяБит/(Пиксели*Кадры) : 0.076Размер потока : 302 Мбайт (82%)Заголовок : UraharaShopБиблиотека кодирования : x264 core 115 r1995 c1e60b9Настройки программы : cabac=1 / ref=2 / deblock=1:0:0 / analyse=0x3:0x113 / me=hex / subme=6 / psy=1 / psy_rd=1.00:0.00 / mixed_ref=1 / me_range=16 / chroma_me=1 / trellis=1 / 8x8dct=1 / cqm=0 / deadzone=21,11 / fast_pskip=1 / chroma_qp_offset=-2 / threads=6 / sliced_threads=0 / nr=0 / decimate=1 / interlaced=0 / bluray_compat=0 / constrained_intra=0 / bframes=3 / b_pyramid=2 / b_adapt=1 / b_bias=0 / direct=1 / weightb=1 / open_gop=0 / weightp=1 / keyint=250 / keyint_min=23 / scenecut=40 / intra_refresh=0 / rc_lookahead=30 / rc=2pass / mbtree=1 / bitrate=1674 / ratetol=1.0 / qcomp=0.60 / qpmin=0 / qpmax=69 / qpstep=4 / cplxblur=20.0 / qblur=0.5 / ip_ratio=1.40 / aq=1:1.00Язык : EnglishDefault : НетForced : Нет
АудиоИдентификатор : 2Формат : MPEG AudioВерсия формата : Version 1Профиль формата : Layer 3Режим : Joint stereoИдентификатор кодека : A_MPEG/L3Идентификатор кодека/Подсказка : MP3Продолжительность : 25 м.Вид битрейта : ПостоянныйБитрейт : 320 Кбит/секКаналы : 2 каналаЧастота : 44,1 КГцМетод сжатия : С потерямиРазмер потока : 57,3 Мбайт (16%)Библиотека кодирования : LAME3.98.2Язык : JapaneseDefault : ДаForced : Нет
Список эпизодов
01 (27). The Dangerous Race
02 (28). The Three Badges
03 (29). The Goal of Glory
04 (30). The Sad Miracle
05 (31). The Boy's Decision
06 (32). A Date with the Magician
07 (33). The Origins of Ashura
08 (34). The Never-ending War
09 (35). The Two Memories
10 (36). Love That Transcends Time
11 (37). Scribbling Mokona
12 (38). The Dangerous Road
13 (39). The Beginning of Separation
14 (40). Black Steel
15 (41). The Library's Secret
16 (42). The Other Side of Nostalgia
17 (43). The Five Vows
18 (44). Kero-chan and Mokona
19 (45). The Second Trial
20 (46). The Secret Art of Gokui
21 (47). Working Sakura
22 (48). Feather King Chaos
23 (49). The Distorted Wish
24 (50). The Group's Determination
25 (51). Freezing Mitama
26 (52). The Wings Of Tomorrow
Отличия
zsax - в той раздаче 1080p, тут 720p.
Скриншоты

_________________
Показать сообщения:    

Текущее время: Сегодня 23:43

Часовой пояс: GMT



Вы не можете начинать темы
Вы не можете отвечать на сообщения
Вы не можете редактировать свои сообщения
Вы не можете удалять свои сообщения
Вы не можете голосовать в опросах
Вы не можете прикреплять файлы к сообщениям
Вы не можете скачивать файлы