Важное объявление!
У Нас Все раздачи мультитрекерные, при нуле пиров в релизах, можете смело вставать на закачку!
 
Автор Сообщение

HUNTER

Стаж:
4 года 4 месяца
Сообщений:
56733

Репутация: 101

[+] [-]
Вне форума [Профиль] [ЛС]

Храбрая сердцем / Brave-Год выпуска: 2012
Страна: США, Walt Disney Pictures, Pixar Animation Studios
Жанр: мультфильм, фэнтези, комедия, приключения, семейный
Продолжительность: 01:33:37
Перевод: Русский дубляж (НТВ+) (Без рассинхрона)
Субтитры: English-В ролях: Келли Макдоналд, Эмма Томпсон, Билли Коннолли, Джули Уолтерс, Робби Колтрейн, Кевин МакКидд, Крэйг Фергюсон, Сэлли Кингхорн, Эйлид Фрайзер, Пейджи Баркер
Режиссёр: Марк Эндрюс, Бренда Чэпман, Стив Пурселл-Описание: Испокон веков мифы и легенды окутывают загадочной пеленой живописные отроги Шотландских гор. Искусной лучнице Мериде приходится выбирать свой путь в жизни самостоятельно, и однажды она отказывается следовать древним традициям королевства, бросая вызов могущественным шотландским кланам и их предводителям: нескладному лорду МакГаффину, угрюмому лорду Макинтошу и сварливому лорду Дингволлу. Неосторожные поступки Мериды грозят повергнуть королевство в хаос, и тогда она отправляется за советом к эксцентричной отшельнице, которая вместо помощи накладывает на Мериду опасное заклятье. Юной принцессе предстоит полагаться только на собственную храбрость, чтобы преодолеть могущественное волшебство и победить самого страшного зверя из тех, что водятся в горных долинах.-Качество: BDRip 1080p
Формат: MKV
Видео кодек: MPEG4-AVC
Аудио кодек: AC3
Видео: MPEG-4 AVC, 10.6 Мбит/с, 1920x1080
Аудио 1: Русский (AC3, 6 ch, 384 Кбит/с)
Аудио 2: Английский (AC3, 6 ch, 540 Кбит/с)-

Рейтинг

Рейтинг:

Media.Info

Format : Matroska
Format version : Version 2
File size : 6.95 GiB
Duration : 1h 33mn
Overall bit rate : 10.6 Mbps
Encoded date : UTC 2012-11-02 19:21:46
Writing application : mkvmerge v2.9.8 ('C'est le bon') built on Aug 13 2009 12:49:06
Writing library : libebml v0.7.7 + libmatroska v0.8.1
Video
ID : 1
Format : AVC
Format/Info : Advanced Video Codec
Format profile : [url=mailto:High@L4.1]High@L4.1[/url]
Format settings, CABAC : Yes
Format settings, ReFrames : 5 frames
Codec ID : V_MPEG4/ISO/AVC
Bit rate : 9 600 Kbps
Width : 1 920 pixels
Height : 804 pixels
Display aspect ratio : 2.40:1
Frame rate mode : Variable
Original frame rate : 23.976 fps
Color space : YUV
Chroma subsampling : 4:2:0
Bit depth : 8 bits
Scan type : Progressive
Bits/(Pixel*Frame) : 0.259
Writing library : x264 core 128 r2216+688+33 06dac27 tMod+MixAQ [8-bit@4:2:0 X86_64]
Encoding settings : cabac=1 / ref=5 / deblock=1:-2:-2 / analyse=0x3:0x113 / me=umh / subme=11 / psy=1 / fade_compensate=0.00 / psy_rd=0.80:0.00 / mixed_ref=1 / me_range=48 / chroma_me=1 / trellis=2 / 8x8dct=1 / cqm=0 / deadzone=21,11 / fast_pskip=0 / chroma_qp_offset=-2 / threads=18 / lookahead_threads=3 / sliced_threads=0 / nr=0 / decimate=0 / interlaced=0 / bluray_compat=0 / constrained_intra=0 / fgo=0 / bframes=8 / b_pyramid=2 / b_adapt=2 / b_bias=0 / direct=3 / weightb=1 / open_gop=0 / weightp=2 / keyint=240 / keyint_min=24 / scenecut=40 / intra_refresh=0 / rc_lookahead=240 / rc=2pass / mbtree=1 / bitrate=9600 / ratetol=1.0 / qcomp=0.70 / qpmin=0 / qpmax=69 / qpstep=4 / cplxblur=20.0 / qblur=0.5 / ip_ratio=1.10 / aq=4 / aq-strength=1.15 / aq-sensitivity=10.00 / aq-ifactor=1.00 / aq-pfactor=1.00 / aq-bfactor=1.00 / aq2=0
Language : English
Default : No
Forced : No
Audio #1
ID : 2
Format : AC-3
Format/Info : Audio Coding 3
Mode extension : CM (complete main)
Format settings, Endianness : Big
Codec ID : A_AC3
Duration : 1h 33mn
Bit rate mode : Constant
Bit rate : 384 Kbps
Channel(s) : 6 channels
Channel positions : Front: L C R, Side: L R, LFE
Sampling rate : 48.0 KHz
Bit depth : 16 bits
Compression mode : Lossy
Stream size : 257 MiB (4%)
Title : NTV
Language : Russian
Default : Yes
Forced : No
Audio #2
ID : 3
Format : AC-3
Format/Info : Audio Coding 3
Mode extension : CM (complete main)
Format settings, Endianness : Big
Codec ID : A_AC3
Duration : 1h 33mn
Bit rate mode : Constant
Bit rate : 640 Kbps
Channel(s) : 6 channels
Channel positions : Front: L C R, Side: L R, LFE
Sampling rate : 48.0 KHz
Bit depth : 16 bits
Compression mode : Lossy
Stream size : 429 MiB (6%)
Title : Original
Language : English
Default : No
Forced : Yes
Text
ID : 4
Format : UTF-8
Codec ID : S_TEXT/UTF8
Codec ID/Info : UTF-8 Plain Text
Title : Original
Language : English
Default : No
Forced : No
Menu
00:00:00.000 : en:00:00:00.000
00:04:22.846 : en:00:04:22.846
00:09:17.432 : en:00:09:17.432
00:12:53.356 : en:00:12:53.356
00:14:00.256 : en:00:14:00.256
00:16:10.469 : en:00:16:10.469
00:17:36.681 : en:00:17:36.681
00:22:55.791 : en:00:22:55.791
00:27:22.891 : en:00:27:22.891
00:28:51.229 : en:00:28:51.229
00:30:54.853 : en:00:30:54.853
00:34:00.372 : en:00:34:00.372
00:36:03.495 : en:00:36:03.495
00:39:06.928 : en:00:39:06.928
00:41:55.096 : en:00:41:55.096
00:43:27.980 : en:00:43:27.980
00:47:05.740 : en:00:47:05.740
00:48:22.358 : en:00:48:22.358
00:51:04.061 : en:00:51:04.061
00:52:33.859 : en:00:52:33.859
00:54:01.155 : en:00:54:01.155
00:54:45.699 : en:00:54:45.699
00:57:30.864 : en:00:57:30.864
00:59:00.162 : en:00:59:00.162
01:02:48.181 : en:01:02:48.181
01:03:27.387 : en:01:03:27.387
01:09:57.735 : en:01:09:57.735
01:10:37.275 : en:01:10:37.275
01:12:35.726 : en:01:12:35.726
01:13:39.498 : en:01:13:39.498
01:15:35.489 : en:01:15:35.489
01:16:59.073 : en:01:16:59.073
01:17:37.111 : en:01:17:37.111
01:19:48.200 : en:01:19:48.200
01:23:16.783 : en:01:23:16.783
01:24:38.657 : en:01:24:38.657
01:32:52.567 : en:01:32:52.567

Скриншоты


_________________
Показать сообщения:    

Текущее время: Сегодня 03:38

Часовой пояс: GMT



Вы не можете начинать темы
Вы не можете отвечать на сообщения
Вы не можете редактировать свои сообщения
Вы не можете удалять свои сообщения
Вы не можете голосовать в опросах
Вы не можете прикреплять файлы к сообщениям
Вы не можете скачивать файлы