Важное объявление!
У Нас Все раздачи мультитрекерные, при нуле пиров в релизах, можете смело вставать на закачку!
 
Автор Сообщение

HUNTER

Стаж:
4 года 4 месяца
Сообщений:
56842

Репутация: 101

[+] [-]
Вне форума [Профиль] [ЛС]

| Все релизы мультфильма || BDRip 720p, 4.44 GB |- P R E S E N T SХрабрая сердцем / Brave-
Страна: США
Жанр: мультфильм, фэнтези, комедия, приключения, семейный
Продолжительность: 01:34:12
Год выпуска: 2012
Перевод 1: Прфессиональный (полное дублирование)
Перевод 2: Авторский (одноголосый закадровый) Юрий Живов
Перевод 3: Авторский (одноголосый закадровый) Юрий Сербин
Перевод 4: Авторский (одноголосый закадровый) Сергей Визгунов
Субтитры: есть-Режиссёр: Марк Эндрюс, Бренда Чэпман, Стив Пурселл / Mark Andrews, Brenda Chapman, Steve Purcell
Роли озвучивали: Келли Макдоналд, Эмма Томпсон, Билли Коннолли, Джули Уолтерс, Робби Колтрейн, Кевин МакКидд, Крэйг Фергюсон, Сэлли Кингхорн, Эйлид Фрайзер, Пейджи Баркер, Стивен Кри, Стив Пурселл, Каллум О’Нилл, Джон Ратценбергер...
Роли дублировали: Лиза Арзамасова, Татьяна Веденеева, Михаил Шуфутинский, Александр Аравушкин, Александр Ромашов, Юрий Герцман, Анна Потебня, Василий Ракша, Андрей Матвеев, Анвар Халилулаев и др.- | | - Рекомендуется присутствие родителей-Описание: Испокон веков мифы и легенды окутывают загадочной пеленой живописные отроги Шотландских гор. Искусной лучнице Мериде приходится выбирать свой путь в жизни самостоятельно, и однажды она отказывается следовать древним традициям королевства, бросая вызов могущественным шотландским кланам и их предводителям: нескладному лорду МакГаффину, угрюмому лорду Макинтошу и сварливому лорду Дингволлу. Неосторожные поступки Мериды грозят повергнуть королевство в хаос, и тогда она отправляется за советом к эксцентричной отшельнице, которая вместо помощи накладывает на Мериду опасное заклятье. Юной принцессе предстоит полагаться только на собственную храбрость, чтобы преодолеть могущественное волшебство и победить самого страшного зверя из тех, что водятся в горных долинах...-Доп. информация: BDRip 720p (2.388:1) сделан с Blu-Ray диска Храбрая сердцем / Brave (2012) Blu-ray CEE 1080p AVC DD 5.1 (Локализованный видеоряд).
- Перевод Юрия Живова осуществлен в 2012 г. силами форумов E180 и WIDESCREEN "Кино в Авторском переводе" по заказу: vik19662007, Multmir, ANISKIN50, Евгений_1, xfiles, furria62, Кирыч, Nick, Bilko, Эдуард, Daniel Rock, safreks,carnivale, Slimka, tide, 48ronin, phaeton77, foxlight, P.Splinter.
- Перевод Юрия Сербина осуществлен в 2012 г. силами форумов E180 и WIDESCREEN "Кино в Авторском переводе" по заказу: vik19662007, Multmir, carnivale, safreks, ANISKIN50, Slimka, Ramis, Bilko, xfiles, ilbilb, Loki1982, phaeton77, пуля, Nick, Gans437, 48ronin, denis_mgn_1987.
- Перевод Сергея Визгунова осуществлен в 2012 г. силами форумов E180 и WIDESCREEN "Кино в Авторском переводе" по заказу: vik19662007, Multmir, safreks, Slimka, xfiles, ilbilb, furria62, Loki1982, phaeton77, Nick, Ken, Bilko, Gans437, tide, 48ronin.
Все авторские звуковые дорожки пересобраны под этот локализованный видеоряд.
Оригинальная (английская) звуковая дорожка TrueHD 7.1 (16 bits) пересобрана в DTS-HD MA 7.1 (16 bits).
Отдельное спасибо xfiles за подготовку русских и украинских субтитров.
-Сэмпл/Sample (60.53 MB, 1 минута)-Качество: BDRip 720p
Формат: MKV
Видео: 1280x536 (2.388:1), 23,976 fps, ~3294 kbps avg, 0.200 bit/pixel
Аудио #1: Русский, AC3, 6 ch, 48 kHz, 448 Kbps - Дубляж | BD CEE
Аудио #2: Русский, AC3, 6 ch, 48 kHz, 640 Kbps - AVO | Юрий Живов
Аудио #3: Русский, AC3, 6 ch, 48 kHz, 640 Kbps - AVO | Юрий Сербин
Аудио #4: Русский, AC3, 6 ch, 48 kHz, 640 Kbps - AVO | Сергей Визгунов
Аудио #5: Украинский, AC3, 6 ch, 48 kHz, 448 Kbps - Дубляж | BD CEE
Аудио #6: English, AC3, 6 ch, 48 kHz, 640 Kbps - Original
Субтитры: Русские (полные), Украинские (полные), English (Full, SDH)
Навигация по главам: есть (37 именованных глав)

MediaInfo / x264Log

x264Log
raw [info]: 1280x536p 1:1 @ 24000/1001 fps (cfr)x264 [info]: using SAR=1/1x264 [info]: using cpu capabilities: MMX2 SSE2Fast SSSE3 SSE4.2 AVX XOP FMA4 FMA3 LZCNT BMI1x264 [info]: profile High, level 4.1x264 [info]: frame I:1196 Avg QP:12.33 size:115261 PSNR Mean Y:50.28 U:51.79 V:51.84 Avg:50.72 Global:50.07x264 [info]: frame P:37196 Avg QP:15.01 size: 31994 PSNR Mean Y:48.34 U:50.12 V:50.25 Avg:48.85 Global:48.07x264 [info]: frame B:97125 Avg QP:17.80 size: 10292 PSNR Mean Y:47.95 U:49.94 V:50.02 Avg:48.49 Global:47.71x264 [info]: consecutive B-frames: 4.1% 6.2% 10.5% 52.3% 10.0% 12.1% 1.4% 1.7% 0.2% 0.3% 0.5% 0.4% 0.2% 0.1%x264 [info]: mb I I16..4: 3.1% 76.9% 20.0%x264 [info]: mb P I16..4: 0.6% 14.0% 2.1% P16..4: 24.4% 28.7% 14.4% 3.3% 0.4% skip:12.1%x264 [info]: mb B I16..4: 0.1% 2.5% 0.3% B16..8: 27.8% 19.4% 3.8% direct: 3.9% skip:42.2% L0:39.5% L1:45.3% BI:15.2%x264 [info]: 8x8 transform intra:83.6% inter:53.0%x264 [info]: coded y,uvDC,uvAC intra: 89.8% 87.7% 73.9% inter: 18.6% 15.1% 6.2%x264 [info]: i16 v,h,dc,p: 18% 9% 5% 68%x264 [info]: i8 v,h,dc,ddl,ddr,vr,hd,vl,hu: 13% 10% 8% 9% 11% 11% 11% 12% 14%x264 [info]: i4 v,h,dc,ddl,ddr,vr,hd,vl,hu: 12% 7% 8% 9% 16% 14% 13% 10% 12%x264 [info]: i8c dc,h,v,p: 41% 23% 17% 18%x264 [info]: Weighted P-Frames: Y:5.1% UV:3.3%x264 [info]: ref P L0: 58.8% 8.5% 12.5% 5.8% 4.1% 3.1% 2.5% 1.5% 1.2% 1.0% 0.8% 0.1% 0.0%x264 [info]: ref B L0: 77.5% 11.2% 4.7% 2.2% 1.5% 1.1% 0.9% 0.5% 0.3% 0.1%x264 [info]: ref B L1: 93.9% 6.1%x264 [info]: SSIM Mean Y:0.9907421 (20.335db)x264 [info]: PSNR Mean Y:48.076 U:50.008 V:50.098 Avg:48.611 Global:47.822 kb/s:3294.23encoded 135517 frames, 8.49 fps, 3294.23 kb/s
GeneralUnique ID : 231314993719107625612234125162070956149 (0xAE05A5B5621731EAADD2AAE100E85875)Complete name : Brave.2012.Rus.Video.BDRip.720p.dfcbit.mkvFormat : MatroskaFormat version : Version 2File size : 4.44 GiBDuration : 1h 34mnOverall bit rate : 6 754 KbpsEncoded date : UTC 2014-07-21 17:52:21Writing application : mkvmerge v4.0.0 ('The Stars were mine') built on Jun 6 2010 16:18:42Writing library : libebml v1.0.0 + libmatroska v1.0.0
VideoID : 1Format : AVCFormat/Info : Advanced Video CodecFormat profile : High@L4.1Format settings, CABAC : YesFormat settings, ReFrames : 11 framesCodec ID : V_MPEG4/ISO/AVCDuration : 1h 34mnBit rate : 3 294 KbpsWidth : 1 280 pixelsHeight : 536 pixelsDisplay aspect ratio : 2.40:1Frame rate mode : ConstantFrame rate : 23.976 fpsColor space : YUVChroma subsampling : 4:2:0Bit depth : 8 bitsScan type : ProgressiveBits/(Pixel*Frame) : 0.200Stream size : 2.17 GiB (47%)Title : NTSC, 1280x536 (2.388:1), BDRip 720p - tRuAVC & Multfilmy [DFCbit]Writing library : x264 core 142 r2431kMod ac76440Encoding settings : cabac=1 / ref=11 / deblock=1:-2:-2 / analyse=0x3:0x133 / me=umh / subme=11 / psy=1 / fade_compensate=0.00 / psy_rd=0.63:0.00 / mixed_ref=1 / me_range=32 / chroma_me=1 / trellis=2 / 8x8dct=1 / cqm=0 / deadzone=21,11 / fast_pskip=0 / chroma_qp_offset=-2 / threads=12 / lookahead_threads=3 / sliced_threads=0 / nr=0 / decimate=1 / interlaced=0 / bluray_compat=0 / constrained_intra=0 / fgo=0 / bframes=13 / b_pyramid=2 / b_adapt=2 / b_bias=0 / direct=1 / weightb=1 / open_gop=0 / weightp=2 / keyint=250 / keyint_min=23 / scenecut=40 / intra_refresh=0 / rc_lookahead=70 / rc=2pass / mbtree=0 / bitrate=3294 / ratetol=1.0 / qcomp=0.81 / qpmin=0 / qpmax=69 / qpstep=4 / cplxblur=20.0 / qblur=0.5 / vbv_maxrate=50000 / vbv_bufsize=62500 / nal_hrd=none / filler=0 / ip_ratio=1.40 / pb_ratio=1.30 / aq=3:0.90Language : RussianDefault : YesForced : NoColor primaries : BT.709Transfer characteristics : BT.709Matrix coefficients : BT.709
Audio #1ID : 2Format : AC-3Format/Info : Audio Coding 3Mode extension : CM (complete main)Format settings, Endianness : BigCodec ID : A_AC3Duration : 1h 34mnBit rate mode : ConstantBit rate : 448 KbpsChannel(s) : 6 channelsChannel positions : Front: L C R, Side: L R, LFESampling rate : 48.0 KHzBit depth : 16 bitsCompression mode : LossyStream size : 302 MiB (7%)Title : AC3, 6 ch, 48 kHz, 448 Kbps - Дубляж | BD CEELanguage : RussianDefault : YesForced : No
Audio #2ID : 3Format : AC-3Format/Info : Audio Coding 3Mode extension : CM (complete main)Format settings, Endianness : BigCodec ID : A_AC3Duration : 1h 34mnBit rate mode : ConstantBit rate : 640 KbpsChannel(s) : 6 channelsChannel positions : Front: L C R, Side: L R, LFESampling rate : 48.0 KHzBit depth : 16 bitsCompression mode : LossyStream size : 431 MiB (9%)Title : AC3, 6 ch, 48 kHz, 640 Kbps - AVO | Юрий ЖивовLanguage : RussianDefault : NoForced : No
Audio #3ID : 4Format : AC-3Format/Info : Audio Coding 3Mode extension : CM (complete main)Format settings, Endianness : BigCodec ID : A_AC3Duration : 1h 34mnBit rate mode : ConstantBit rate : 640 KbpsChannel(s) : 6 channelsChannel positions : Front: L C R, Side: L R, LFESampling rate : 48.0 KHzBit depth : 16 bitsCompression mode : LossyStream size : 431 MiB (9%)Title : AC3, 6 ch, 48 kHz, 640 Kbps - AVO | Юрий СербинLanguage : RussianDefault : NoForced : No
Audio #4ID : 5Format : AC-3Format/Info : Audio Coding 3Mode extension : CM (complete main)Format settings, Endianness : BigCodec ID : A_AC3Duration : 1h 34mnBit rate mode : ConstantBit rate : 640 KbpsChannel(s) : 6 channelsChannel positions : Front: L C R, Side: L R, LFESampling rate : 48.0 KHzBit depth : 16 bitsCompression mode : LossyStream size : 431 MiB (9%)Title : AC3, 6 ch, 48 kHz, 640 Kbps - AVO | Сергей ВизгуновLanguage : RussianDefault : NoForced : No
Audio #5ID : 6Format : AC-3Format/Info : Audio Coding 3Mode extension : CM (complete main)Format settings, Endianness : BigCodec ID : A_AC3Duration : 1h 34mnBit rate mode : ConstantBit rate : 448 KbpsChannel(s) : 6 channelsChannel positions : Front: L C R, Side: L R, LFESampling rate : 48.0 KHzBit depth : 16 bitsCompression mode : LossyStream size : 302 MiB (7%)Title : AC3, 6 ch, 48 kHz, 448 Kbps - Дубляж | BD CEELanguage : UkrainianDefault : NoForced : No
Audio #6ID : 7Format : AC-3Format/Info : Audio Coding 3Mode extension : CM (complete main)Format settings, Endianness : BigCodec ID : A_AC3Duration : 1h 34mnBit rate mode : ConstantBit rate : 640 KbpsChannel(s) : 6 channelsChannel positions : Front: L C R, Side: L R, LFESampling rate : 48.0 KHzBit depth : 16 bitsCompression mode : LossyStream size : 431 MiB (9%)Title : AC3, 6 ch, 48 kHz, 640 Kbps - OriginalLanguage : EnglishDefault : NoForced : No
Text #1ID : 8Format : UTF-8Codec ID : S_TEXT/UTF8Codec ID/Info : UTF-8 Plain TextTitle : SRT, ПолныеLanguage : RussianDefault : NoForced : No
Text #2ID : 9Format : UTF-8Codec ID : S_TEXT/UTF8Codec ID/Info : UTF-8 Plain TextTitle : SRT, ПолныеLanguage : UkrainianDefault : NoForced : No
Text #3ID : 10Format : UTF-8Codec ID : S_TEXT/UTF8Codec ID/Info : UTF-8 Plain TextTitle : SRT, FullLanguage : EnglishDefault : NoForced : No
Text #4ID : 11Format : UTF-8Codec ID : S_TEXT/UTF8Codec ID/Info : UTF-8 Plain TextTitle : SRT, (SDH)Language : EnglishDefault : NoForced : No
Menu00:00:00.000 : ru:1. День рождения00:04:22.846 : ru:2. Мерида00:09:17.432 : ru:3. Семейная трапеза00:12:53.356 : ru:4. Легенды учат00:14:00.256 : ru:5. Просто послушай00:16:10.469 : ru:6. Подготовка00:17:36.681 : ru:7. Знакомство с лордами00:22:55.791 : ru:8. Игры00:27:22.891 : ru:9. Ссора00:28:51.229 : ru:10. Мерида убегает00:30:54.853 : ru:11. Искусная резчица00:34:00.372 : ru:12. Заклятье00:36:03.495 : ru:13. Кекс00:39:06.928 : ru:14. Превращение00:41:55.096 : ru:15. Охота в замке00:43:27.980 : ru:16. Тройняшки сбивают с пути00:47:05.740 : ru:17. Клочья00:48:22.358 : ru:18. Послание из котла00:51:04.061 : ru:19. Память00:52:33.859 : ru:20. Рассвет00:54:01.155 : ru:21. Завтрак00:54:45.699 : ru:22. Рыбалка с мамой00:57:30.864 : ru:23. Погоня00:59:00.162 : ru:24. Руины01:02:48.181 : ru:25. Блокада01:03:27.387 : ru:26. Помощь мамы01:09:57.735 : ru:27. Гобелен01:10:37.275 : ru:28. Медведь в замке01:12:35.726 : ru:29. Отчаяние01:13:39.498 : ru:30. Ключ01:15:35.489 : ru:31. К спасению01:16:59.073 : ru:32. Противоборство01:17:37.111 : ru:33. Медвежья схватка01:19:48.200 : ru:34. Второй рассвет01:23:16.783 : ru:35. Эпилог01:24:38.657 : ru:36. Финальные титры01:33:27.602 : ru:37. Доставка

Скриншоты

Скриншот с названием мультфильма / Локализация

--BDRip 720p


Source Blu-Ray

Релиз от групп | and | -Данный релиз не будет воспроизводиться на бытовых плеерах не поддерживающих MKV и H.264Обсуждение релизов в AVC формате || Свежие AVC рипы

_________________
Показать сообщения:    

Текущее время: Сегодня 13:39

Часовой пояс: GMT



Вы не можете начинать темы
Вы не можете отвечать на сообщения
Вы не можете редактировать свои сообщения
Вы не можете удалять свои сообщения
Вы не можете голосовать в опросах
Вы не можете прикреплять файлы к сообщениям
Вы не можете скачивать файлы