Важное объявление!
У Нас Все раздачи мультитрекерные, при нуле пиров в релизах, можете смело вставать на закачку!
 
Автор Сообщение

HUNTER

Стаж:
4 года 4 месяца
Сообщений:
56734

Репутация: 101

[+] [-]
Вне форума [Профиль] [ЛС]

-
Год выпуска: 2013
Страна: Япония
Жанр: спорт, этти
Продолжительность: 12 эп. по 24 мин.
Выпуск: c 10.10.2013 по 12.12.2013-Перевод:
  • русские субтитры от rsx0806 (полные/вспомогательные)
-Режиссер: Кудзё Рион
Студия: ARMS-Описание:
Идолы должны делать все, и 17-летняя Сакура Хагивара, звезда группы «Сладкая дива», поехала на очередные съемки – совместную тренировку с командой профессиональной борьбы. Увы, в разгаре работы возник конфликт, одна из спортсменок, язвительная Рио Кадзама, прилюдно унизила Елену, другую вокалистку группы. Сакура вступилась не только за подругу, но за честь профессии, и вызвала Рио на борцовский матч, считая, что женский рестлинг – такая же часть шоу-бизнеса, как песни и пляски на концертной сцене. Оно, конечно, верно, только артистки силовых постановок и по-настоящему тоже здорово бороться умеют!
В итоге Хагивара, несмотря на неплохую общую подготовку, бой позорно проиграла. Однако девушка уже закусила удила и решила стать профессионалом, доказав, что поп-певицы – не слабаки, и могут достичь успеха хоть на эстраде, хоть на ринге. Сакура вступила в клуб «Берсерк», где уже есть бывший идол, ныне суперзвезда рестлинга Мисаки Тоёда. Вот только пойти по стопам старшей подруги героине пока не удается – несмотря на неплохую «физику», она напрочь лишена агрессивности, инстинкта убийцы, необходимого любому бойцу. Ничего, как раз против этого недуга выработаны надежные приемы, которые сводятся к нехитрой мысли: «не можешь – поможем, не хочешь – заставим!»
© Hollow, World Art
Тематика сериала выбрана не зря: после спада популярности в 2000-е годы женский рестлинг в Японии ныне снова на подъеме, ибо поменялась его парадигма – на ринг выходят не только жесткие профессионалы, а студентки, домохозяйки, клерки, чуть ли не певицы, как героиня сериала.-Информационные ссылки: AniDB || World Art || MAL-Качество: BDRip
Энкод: Winter - RG Pantheon
Тип видео: без хардсаба, без линковки
Формат: mkv
Видео: x264 (Hi10p), 1280x720, ~4500 Kbps, 23.976 fps
Аудио JAP: Vorbis, 48000Hz, ~256 Kbps, 2ch-

Список эпизодов

01. An Idol-Wrestler Is Born!
02. Pro Debut!

Скриншоты


Подробные тех. данные

Общее
Уникальный идентификатор : 178569518334632032651792077780698003607 (0x86573CFE0DAC07F59826EE95A847F897)
Полное имя : Z:\Anime\720p\Sekai de Ichiban Tsuyoku Naritai! [BD] [720p] - копия\[Winter] Sekai de Ichiban Tsuyoku Naritai! 01 [BDrip 1280x720 x264 Vorbis].mkv
Формат : Matroska
Версия формата : Version 2
Размер файла : 849 Мбайт
Продолжительность : 23 м.
Режим общего битрейта : Переменный
Общий поток : 5015 Кбит/сек
Дата кодирования : UTC 2014-02-19 02:46:10
Программа кодирования : mkvmerge v2.9.8 ('C'est le bon') built on Aug 13 2009 12:49:06
Библиотека кодирования : libebml v0.7.7 + libmatroska v0.8.1
Видео
Идентификатор : 1
Формат : AVC
Формат/Информация : Advanced Video Codec
Профиль формата : High 10@L4.1
Параметр CABAC формата : Да
Параметр ReFrames формата : 9 кадров
Идентификатор кодека : V_MPEG4/ISO/AVC
Продолжительность : 23 м.
Битрейт : 4659 Кбит/сек
Ширина : 1280 пикселей
Высота : 720 пикселей
Соотношение сторон : 16:9
Режим частоты кадров : Постоянный
Частота кадров : 23,976 кадра/сек
Цветовое пространство : YUV
Субдискретизация насыщенности : 4:2:0
Битовая глубина : 10 бит
Тип развёртки : Прогрессивная
Бит/(Пиксели*Кадры) : 0.211
Размер потока : 789 Мбайт (93%)
Библиотека кодирования : x264 core 132 r2309 3b1f1f7
Настройки программы : cabac=1 / ref=9 / deblock=1:-2:-2 / analyse=0x3:0x133 / me=umh / subme=9 / psy=1 / psy_rd=0.90:0.00 / mixed_ref=1 / me_range=24 / chroma_me=1 / trellis=2 / 8x8dct=1 / cqm=0 / deadzone=21,11 / fast_pskip=1 / chroma_qp_offset=-2 / threads=12 / lookahead_threads=2 / sliced_threads=0 / nr=0 / decimate=0 / interlaced=0 / bluray_compat=0 / constrained_intra=0 / bframes=8 / b_pyramid=2 / b_adapt=2 / b_bias=0 / direct=1 / weightb=1 / open_gop=0 / weightp=2 / keyint=250 / keyint_min=23 / scenecut=40 / intra_refresh=0 / rc=crf / mbtree=0 / crf=15.7 / qcomp=0.70 / qpmin=9 / qpmax=40 / qpstep=4 / ip_ratio=1.40 / pb_ratio=1.30 / aq=1:0.90 / zones=1912,3598,b=1.2/20097,20590,b=1.2/31166,33316,b=1.2
Default : Нет
Forced : Нет
Аудио
Идентификатор : 2
Формат : Vorbis
Параметр Floor формата : 1
Идентификатор кодека : A_VORBIS
Продолжительность : 23 м.
Вид битрейта : Переменный
Битрейт : 256 Кбит/сек
Каналы : 2 канала
Частота : 48,0 КГц
Метод сжатия : С потерями
Размер потока : 43,3 Мбайт (5%)
Библиотека кодирования : libVorbis (Schaufenugget) (20101101 (Schaufenugget))
Язык : Japanese
Default : Да
Forced : Нет
- -

Информация о релизе

  • Выбор видео, перевода, озвучки, а также типа сборки материала осуществляется релизером и не подлежит обсуждению. Если вы считаете, что раздаваемый материал противоречит правилам раздела "Аниме" rutracker.org, сообщите об этом одному из модераторов раздела.
  • В случае появления нового материала или же лучшего по качеству материала релизер оставляет за собой право обновить раздачу. В этом случае вам необходимо ознакомиться с изменениями (добавлениями) и перекачать торрент.
  • Данный релиз предназначен для просмотра на ПК. Воспроизведение на иных проигрывателях не гарантируется. Для просмотра рекомендуется Media Player Classic с установленным пакетом кодеков K-Lite.
  • Данный релиз содержит 10-битное видео (Hi10p). Для корректного воспроизведения обязательно используйте кодеки, поддерживающие 10-битное видео.
    Обсудить частные случаи проблем с воспроизведением и получить дополнительную информацию можно здесь.

  • Данный релиз предназначен для просмотра с внешними субтитрами и внешними звуковыми дорожками.
    • Для просмотра с внешней звуковой дорожкой нужно:
      перекинуть файлы .mka из папки "RUS Sound [<автор(ы) озвучки>]" в одну папку с видео и переключить звуковую дорожку в плеере при просмотре. Как это сделать в разных плеерах подробно описано здесь.

    • Для просмотра с субтитрами нужно:
      перекинуть файлы .ass из папки "RUS Subtitles [<автор(ы) перевода>]" в одну папку с видео - плеер подгрузит их автоматически при открытии видео.
  • Если у вас возникли проблемы с просмотром, не связанные с описанным выше, сообщите о них автору раздачи посредством сообщения в теме или ЛС Aglenn.

_________________
Показать сообщения:    

Текущее время: Сегодня 15:59

Часовой пояс: GMT



Вы не можете начинать темы
Вы не можете отвечать на сообщения
Вы не можете редактировать свои сообщения
Вы не можете удалять свои сообщения
Вы не можете голосовать в опросах
Вы не можете прикреплять файлы к сообщениям
Вы не можете скачивать файлы