Важное объявление!
У Нас Все раздачи мультитрекерные, при нуле пиров в релизах, можете смело вставать на закачку!
 
Автор Сообщение

HUNTER

Стаж:
4 года 4 месяца
Сообщений:
56734

Репутация: 101

[+] [-]
Вне форума [Профиль] [ЛС]

Хортон / Horton Hears a Who!
«One Elephant One World One Story»
-Страна: США
Жанр: мультфильм, фэнтези, комедия, приключения, семейны
Продолжительность: 01:26:10
Год выпуска: 2008
Перевод: Профессиональный (дублированный) BD CEE
Русские субтитры: есть-Режиссёр: Джимми Хэйуорд / Hayward Jimmy, Стив Мартино / Martino Steve
Роли озвучивали: Джим Керри, Стив Карелл, Кэрол Барнетт, Уилл Арнетт, Сет Роджен, Дэн Фоглер, Исла Фишер, Йон Хилл, Эми Пехлер, Джейми Пресли, Чарльз Осгуд, Джош Флиттер, Найси Нэш, Джесси МакКартни, Шелби Адамовски, Джек Энджел, Кэйтлин Роуз Андерсон, Эмили Андерсон.
Описание: У слоненка Хортона такие большие уши, что он, оказывается, может слышать даже то, как с ним говорит цветок. Вернее, существа, которые живут в нем. Но если слоненок начинает говорить и прислушиваться к цветку, наверное он ненормальный? Так посчитали все звери. Но Хортону все равно. Он считает своим долгом спасти население цветка от угрозы извне.-Рип от HDMaNiAcS
Семпл: Заливается.
Качество: BDRip 1080p
Формат: MKV
Видео: 1920 x 1040 (1.846), x264 L4.1 High, 23.976 fps, 12.0 Mbps
Аудио: 48 kHz, DTS 5.1 - 768 kbps |Дубляж, BD CEE|
Аудио 2: 48 kHz, DD 5.1 - 384 kbps |Укр. Дубляж|
Аудио 3: 48 kHz, DD 5.1 - 640 kbps |Оригинал|
Субтитры: Rus, Rus (BD), Urk, Eng.
За украинскую дорогу и субтитры большое спасибо xfiles

TECHNiCAL SPECS + x264 Log

Цитата:

TECHNiCAL SPECS :
Release Name....: Horton.Hears.a.Who!2008.1080p.BluRay.DD5.1.x264-HDMaNiAcSRelease Date....: 10-10-2013 (D:M:Y)Type............: 1080pTotal Size......: 7.88 GiBRuntime ........: 1h 26mnSample..........: -DXVA compliant..: YesSource..........: HORTON_H_A_W_BD_EUR_BLUEBIRD (thank you)Resolution......: 1920x1040Aspect Ratio....: 1.85:1Bitrate.........: 12.0 MbpsFrame Rate......: 23.976 fpsVideo Encoder ..: x264 L4.1 HighVideo Container.: Matroska (mkv)Chapters........: YESAudio 1.........: English AC3 640 Kbps @ 5.1 CHAudio 2.........: Greek AC3 448 Kbps @ 5.1 CHSubtitles.......: English sup from original BluRay Dutch,Czech,French,Greek,Croatian,Norwegian,Portuguese, Romanian,English,BRA-Portuguese,Polish srtEncoder.........: xarisandr
x264 Log :x264 [info]: profile High, level 4.1x264 [info]: frame I:1304 Avg QP:12.49 size:286310x264 [info]: frame P:41286 Avg QP:13.78 size: 96197x264 [info]: frame B:81377 Avg QP:16.38 size: 41836x264 [info]: consecutive B-frames: 7.6% 14.5% 11.0% 53.9% 8.4% 3.0% 0.9% 0.2% 0.4%

Подробные технические данные

Полное имя : Horton.Hears.a.Who!2008.1080p.BluRay.DD5.1.x264-HDMaNiAcS.Rus.Ukr.Eng.mkvФормат : MatroskaВерсия формата : Version 4 / Version 2Размер файла : 8.31 GiBПродолжительность : 1h 26mnОбщий поток : 13.8 MbpsНазвание фильма : Horton Hears.a Who! (2008) | Rip by HDMaNiAcSДата кодирования : UTC 2014-03-16 15:54:51Программа кодирования : mkvmerge v6.5.0 ('Isn't she lovely') built on Oct 20 2013 12:50:05Библиотека кодирования : libebml v1.3.0 + libmatroska v1.4.1
VideoИдентификатор : 1Формат : AVCФормат/Информация : Advanced Video CodecПрофиль формата : High@L4.1Параметр CABAC формата : YesПараметр ReFrames формата : 4 framesИдентификатор кодека : V_MPEG4/ISO/AVCПродолжительность : 1h 26mnБитрейт : 12.0 MbpsШирина : 1 920 pixelsВысота : 1 040 pixelsСоотношение сторон : 1.85:1Режим частоты кадров : ConstantЧастота кадров : 23.976 fpsЦветовое пространство : YUVСубдискретизация насыщенности : 4:2:0Битовая глубина : 8 bitsТип развёртки : ProgressiveБит/(Пиксели*Кадры) : 0.251Размер потока : 7.06 GiB (85%)Заголовок : Horton Hears a Who! (2008) by DjexБиблиотека кодирования : x264 core 133 r2334 a3ac64bНастройки программы : cabac=1 / ref=4 / deblock=1:-1:-1 / analyse=0x3:0x113 / me=tesa / subme=11 / psy=1 / psy_rd=1.00:0.00 / mixed_ref=1 / me_range=32 / chroma_me=1 / trellis=2 / 8x8dct=1 / cqm=0 / deadzone=21,11 / fast_pskip=1 / chroma_qp_offset=-2 / threads=12 / lookahead_threads=2 / sliced_threads=0 / nr=0 / decimate=1 / interlaced=0 / bluray_compat=0 / constrained_intra=0 / bframes=8 / b_pyramid=2 / b_adapt=2 / b_bias=0 / direct=3 / weightb=1 / open_gop=0 / weightp=2 / keyint=240 / keyint_min=23 / scenecut=40 / intra_refresh=0 / rc=2pass / mbtree=0 / bitrate=12000 / ratetol=1.0 / qcomp=0.60 / qpmin=10 / qpmax=69 / qpstep=4 / cplxblur=20.0 / qblur=0.5 / ip_ratio=1.40 / pb_ratio=1.30 / aq=2:0.90Язык : EnglishDefault : YesForced : No
Audio #1Идентификатор : 2Формат : DTSФормат/Информация : Digital Theater SystemsРежим : 16Параметр Endianness формата : BigИдентификатор кодека : A_DTSПродолжительность : 1h 26mnВид битрейта : ConstantБитрейт : 768 KbpsКаналы : 6 channelsРасположение каналов : Front: L C R, Side: L R, LFEЧастота : 48.0 KHzБитовая глубина : 24 bitsМетод сжатия : LossyРазмер потока : 473 MiB (6%)Заголовок : DTS 5.1 - 768 kbps |Дубляж, BD CEE|Язык : RussianDefault : YesForced : No
Audio #2Идентификатор : 3Формат : AC-3Формат/Информация : Audio Coding 3Расширение режима : CM (complete main)Параметр Endianness формата : BigИдентификатор кодека : A_AC3Продолжительность : 1h 26mnВид битрейта : ConstantБитрейт : 384 KbpsКаналы : 6 channelsРасположение каналов : Front: L C R, Side: L R, LFEЧастота : 48.0 KHzБитовая глубина : 16 bitsМетод сжатия : LossyРазмер потока : 237 MiB (3%)Заголовок : DD 5.1 - 384 kbps |Дубляж|Язык : UkrainianDefault : NoForced : No
Audio #3Идентификатор : 4Формат : AC-3Формат/Информация : Audio Coding 3Расширение режима : CM (complete main)Параметр Endianness формата : BigИдентификатор кодека : A_AC3Продолжительность : 1h 26mnВид битрейта : ConstantБитрейт : 640 KbpsКаналы : 6 channelsРасположение каналов : Front: L C R, Side: L R, LFEЧастота : 48.0 KHzБитовая глубина : 16 bitsМетод сжатия : LossyРазмер потока : 394 MiB (5%)Заголовок : DD 5.1 - 640 kbps |Оригинал|Язык : EnglishDefault : NoForced : No
Text #1Идентификатор : 5Формат : UTF-8Идентификатор кодека : S_TEXT/UTF8Идентификатор кодека/Информация : UTF-8 Plain TextЯзык : RussianDefault : NoForced : No
Text #2Идентификатор : 6Формат : VobSubРежим смешивания : zlibИдентификатор кодека : S_VOBSUBИдентификатор кодека/Информация : The same subtitle format used on DVDsЗаголовок : BDЯзык : RussianDefault : NoForced : No
Text #3Идентификатор : 7Формат : UTF-8Идентификатор кодека : S_TEXT/UTF8Идентификатор кодека/Информация : UTF-8 Plain TextЯзык : UkrainianDefault : NoForced : No
Text #4Идентификатор : 8Формат : UTF-8Идентификатор кодека : S_TEXT/UTF8Идентификатор кодека/Информация : UTF-8 Plain TextЯзык : EnglishDefault : NoForced : No
Text #5Идентификатор : 9Формат : PGSРежим смешивания : zlibИдентификатор кодека : S_HDMV/PGSИдентификатор кодека/Информация : The same subtitle format used on BDs/HD-DVDsЗаголовок : BDЯзык : EnglishDefault : NoForced : No
Text #6Идентификатор : 10Формат : UTF-8Идентификатор кодека : S_TEXT/UTF8Идентификатор кодека/Информация : UTF-8 Plain TextЯзык : DutchDefault : NoForced : No
Text #7Идентификатор : 11Формат : UTF-8Идентификатор кодека : S_TEXT/UTF8Идентификатор кодека/Информация : UTF-8 Plain TextЯзык : CzechDefault : NoForced : No
Text #8Идентификатор : 12Формат : UTF-8Идентификатор кодека : S_TEXT/UTF8Идентификатор кодека/Информация : UTF-8 Plain TextЯзык : FrenchDefault : NoForced : No
Text #9Идентификатор : 13Формат : UTF-8Идентификатор кодека : S_TEXT/UTF8Идентификатор кодека/Информация : UTF-8 Plain TextЯзык : GreekDefault : NoForced : No
Text #10Идентификатор : 14Формат : UTF-8Идентификатор кодека : S_TEXT/UTF8Идентификатор кодека/Информация : UTF-8 Plain TextЯзык : CroatianDefault : NoForced : No
Text #11Идентификатор : 15Формат : UTF-8Идентификатор кодека : S_TEXT/UTF8Идентификатор кодека/Информация : UTF-8 Plain TextЯзык : NorwegianDefault : NoForced : No
Text #12Идентификатор : 16Формат : UTF-8Идентификатор кодека : S_TEXT/UTF8Идентификатор кодека/Информация : UTF-8 Plain TextЯзык : PortugueseDefault : NoForced : No
Text #13Идентификатор : 17Формат : UTF-8Идентификатор кодека : S_TEXT/UTF8Идентификатор кодека/Информация : UTF-8 Plain TextЯзык : RomanianDefault : NoForced : No
Text #14Идентификатор : 18Формат : UTF-8Идентификатор кодека : S_TEXT/UTF8Идентификатор кодека/Информация : UTF-8 Plain TextЯзык : PolishDefault : NoForced : No
Menu00:00:00.000 : en:00:00:00.00000:02:43.330 : en:00:02:43.33000:04:02.409 : en:00:04:02.40900:05:57.566 : en:00:05:57.56600:08:20.542 : en:00:08:20.54200:10:52.569 : en:00:10:52.56900:12:10.271 : en:00:12:10.27100:13:27.432 : en:00:13:27.43200:15:57.790 : en:00:15:57.79000:18:59.930 : en:00:18:59.93000:21:08.142 : en:00:21:08.14200:24:46.652 : en:00:24:46.65200:26:00.476 : en:00:26:00.47600:28:03.557 : en:00:28:03.55700:29:33.605 : en:00:29:33.60500:32:03.713 : en:00:32:03.71300:36:10.585 : en:00:36:10.58500:40:41.814 : en:00:40:41.81400:42:33.176 : en:00:42:33.17600:46:15.356 : en:00:46:15.35600:48:36.247 : en:00:48:36.24700:51:07.731 : en:00:51:07.73100:53:13.565 : en:00:53:13.56500:56:59.291 : en:00:56:59.29100:59:23.185 : en:00:59:23.18501:04:25.904 : en:01:04:25.90401:06:59.265 : en:01:06:59.26501:10:00.738 : en:01:10:00.73801:12:06.697 : en:01:12:06.69701:15:28.524 : en:01:15:28.52401:17:53.335 : en:01:17:53.33501:19:37.189 : en:01:19:37.189

Скриншоты

Source VS HDMaNiAcS





_________________
Показать сообщения:    

Текущее время: Сегодня 11:08

Часовой пояс: GMT



Вы не можете начинать темы
Вы не можете отвечать на сообщения
Вы не можете редактировать свои сообщения
Вы не можете удалять свои сообщения
Вы не можете голосовать в опросах
Вы не можете прикреплять файлы к сообщениям
Вы не можете скачивать файлы