Важное объявление!
У Нас Все раздачи мультитрекерные, при нуле пиров в релизах, можете смело вставать на закачку!
 
Автор Сообщение

HUNTER

Стаж:
4 года 4 месяца
Сообщений:
56842

Репутация: 101

[+] [-]
Вне форума [Профиль] [ЛС]

Хороший, плохой, злой / Il buono, il brutto, il cattivo / The Good, the Bad and the Ugly
Страна: Италия, Испания, Германия
Жанр: вестерн
Год выпуска: 1966
Продолжительность: 02:58:36
Перевод 1: Профессиональный (многоголосый закадровый) SomeWax
Перевод 2: Профессиональный (двухголосый закадровый) лицензия
Перевод 3: Профессиональный (многоголосый закадровый) (для непереведенных участков отдельные сабы)
Перевод 4: Профессиональный (двухголосый закадровый) орт
Перевод 5: Авторский (одноголосый закадровый) Горчаков
Перевод 6: Авторский (одноголосый закадровый) Михалев
Cубтитры: русские полные (2 вида), русские на непереведенные участки для дорожки №3, английские
Оригинальная аудиодорожка: английский
Режиссер: Серджио Леоне / Sergio Leone
В ролях: Эли Уоллах, Клинт Иствуд, Ли Ван Клиф, Марио Брега, Рада Рассимов, Альдо Джуффре, Луиджи Пистилли, Антонио Касас, Антонио Молино Рохо, Антонио Казале
Описание: Заключительная часть «долларовой трилогии» Серджио Леоне. Сюжет классический для вестерна: пути трех харезматичных мачо, ищущих на Диком Западе достойную долю, пересекаются в желании завладеть кладом. Со всеми вытекающими...
Наверное один их лучших так называемых спагетти-вестернов (и вестернов Серджио Леоне, в частности), стоящий в одном ряду с лучшими голливудскими вестернами.
Доп. информация: Сделан на основе блюрея hdclub. Русские дорожки и сабы синхронизировал sokolmy2.
Сэмпл: https://www.sendspace.com/file/6gngzb
Качество: BDRemux
Формат: MKV
Видео: 1920х1080 (2.35:1), 23,976 fps, AVC (H.264) ~22400 kbps avg
Аудио 1: Russian (48 KHz, DTS, 6 ch, ~1510 Kbps) (многоголосый SomeWax)
Аудио 2: Russian (48 KHz, DTS, 6 ch, ~1510 Kbps) (двухголосый лицензия)
Аудио 3: Russian (48 KHz, AC3, 6 ch, ~448 Kbps) (многоголосый)
Аудио 4: Russian (48 KHz, AC3, 2 ch, ~192 Kbps) (двухголосый орт)
Аудио 5: Russian (48 KHz, DTS, 6 ch, ~1510 Kbps) (авторский Горчаков)
Аудио 6: Russian (48 KHz, AC3, 6 ch, ~448 Kbps) (авторский Михалев)
Аудио 7: English (48 KHz, DTS-HD, 6 ch, 2916 kbps (DTS Core: 1509 kbps)) (оригинал)
Формат субтитров: softsub (SRT)

MediaInfo

Общее
Уникальный идентификатор : 227078954350243526356145646658328651893 (0xAAD5D0D7C41772D88DF8CB44EB36E875)
Полное имя : D:\КИНО\Хороший, плохой, злой_ремукс.mkv
Формат : Matroska
Версия формата : Version 4 / Version 2
Размер файла : 39,4 Гбайт
Продолжительность : 2 ч. 58 м.
Режим общего битрейта : Переменный
Общий поток : 31,6 Мбит/сек
Дата кодирования : UTC 2014-06-20 05:08:28
Программа кодирования : mkvmerge v6.9.1 ('Blue Panther') 32bit built on Apr 18 2014 18:15:44
Библиотека кодирования : libebml v1.3.0 + libmatroska v1.4.1
Видео
Идентификатор : 1
Формат : AVC
Формат/Информация : Advanced Video Codec
Профиль формата : High@L4.1
Параметр CABAC формата : Да
Параметр ReFrames формата : 4 кадра
Идентификатор кодека : V_MPEG4/ISO/AVC
Продолжительность : 2 ч. 58 м.
Вид битрейта : Переменный
Максимальный битрейт : 35,0 Мбит/сек
Ширина : 1920 пикселей
Высота : 1080 пикселей
Соотношение сторон : 16:9
Режим частоты кадров : Постоянный
Частота кадров : 23,976 кадра/сек
Цветовое пространство : YUV
Субдискретизация насыщенности : 4:2:0
Битовая глубина : 8 бит
Тип развёртки : Прогрессивная
Default : Да
Forced : Нет
Аудио #1
Идентификатор : 2
Формат : DTS
Формат/Информация : Digital Theater Systems
Режим : 16
Параметр Endianness формата : Big
Идентификатор кодека : A_DTS
Продолжительность : 2 ч. 58 м.
Вид битрейта : Постоянный
Битрейт : 1510 Кбит/сек
Каналы : 6 каналов
Расположение каналов : Front: L C R, Side: L R, LFE
Частота : 48,0 КГц
Битовая глубина : 24 бит
Метод сжатия : С потерями
Размер потока : 1,88 Гбайт (5%)
Заголовок : многоголосый SomeWax
Язык : Russian
Default : Да
Forced : Нет
Аудио #2
Идентификатор : 3
Формат : DTS
Формат/Информация : Digital Theater Systems
Режим : 16
Параметр Endianness формата : Big
Идентификатор кодека : A_DTS
Продолжительность : 2 ч. 58 м.
Вид битрейта : Постоянный
Битрейт : 1510 Кбит/сек
Каналы : 6 каналов
Расположение каналов : Front: L C R, Side: L R, LFE
Частота : 48,0 КГц
Битовая глубина : 24 бит
Метод сжатия : С потерями
Размер потока : 1,88 Гбайт (5%)
Заголовок : двухголосый лицензия
Язык : Russian
Default : Нет
Forced : Нет
Аудио #3
Идентификатор : 4
Формат : AC-3
Формат/Информация : Audio Coding 3
Расширение режима : CM (complete main)
Параметр Endianness формата : Big
Идентификатор кодека : A_AC3
Продолжительность : 2 ч. 58 м.
Вид битрейта : Постоянный
Битрейт : 448 Кбит/сек
Каналы : 6 каналов
Расположение каналов : Front: L C R, Side: L R, LFE
Частота : 48,0 КГц
Битовая глубина : 16 бит
Метод сжатия : С потерями
Размер потока : 572 Мбайт (1%)
Заголовок : многоголосый
Язык : Russian
Default : Нет
Forced : Нет
Аудио #4
Идентификатор : 5
Формат : AC-3
Формат/Информация : Audio Coding 3
Расширение режима : CM (complete main)
Параметр Endianness формата : Big
Идентификатор кодека : A_AC3
Продолжительность : 2 ч. 58 м.
Вид битрейта : Постоянный
Битрейт : 192 Кбит/сек
Каналы : 2 канала
Расположение каналов : Front: L R
Частота : 48,0 КГц
Битовая глубина : 16 бит
Метод сжатия : С потерями
Размер потока : 245 Мбайт (1%)
Заголовок : двухголосый орт
Язык : Russian
Default : Нет
Forced : Нет
Аудио #5
Идентификатор : 6
Формат : DTS
Формат/Информация : Digital Theater Systems
Режим : 16
Параметр Endianness формата : Big
Идентификатор кодека : A_DTS
Продолжительность : 2 ч. 58 м.
Вид битрейта : Постоянный
Битрейт : 1510 Кбит/сек
Каналы : 6 каналов
Расположение каналов : Front: L C R, Side: L R, LFE
Частота : 48,0 КГц
Битовая глубина : 24 бит
Метод сжатия : С потерями
Размер потока : 1,88 Гбайт (5%)
Заголовок : авторский Горчаков
Язык : Russian
Default : Нет
Forced : Нет
Аудио #6
Идентификатор : 7
Формат : AC-3
Формат/Информация : Audio Coding 3
Расширение режима : CM (complete main)
Параметр Endianness формата : Big
Идентификатор кодека : A_AC3
Продолжительность : 2 ч. 58 м.
Вид битрейта : Постоянный
Битрейт : 448 Кбит/сек
Каналы : 6 каналов
Расположение каналов : Front: L C R, Side: L R, LFE
Частота : 48,0 КГц
Битовая глубина : 16 бит
Метод сжатия : С потерями
Размер потока : 572 Мбайт (1%)
Заголовок : Михалев
Язык : Russian
Default : Нет
Forced : Нет
Аудио #7
Идентификатор : 8
Формат : DTS
Формат/Информация : Digital Theater Systems
Профиль формата : MA / Core
Режим : 16
Параметр Endianness формата : Big
Идентификатор кодека : A_DTS
Продолжительность : 2 ч. 58 м.
Вид битрейта : Переменный
Битрейт : Неизвестно / 1509 Кбит/сек
Каналы : 6 каналов
Расположение каналов : Front: L C R, Side: L R, LFE
Частота : 48,0 КГц
Битовая глубина : 24 бит
Метод сжатия : Без потерь / Lossy
Заголовок : оригинал
Язык : English
Default : Нет
Forced : Нет
Текст #1
Идентификатор : 9
Формат : UTF-8
Идентификатор кодека : S_TEXT/UTF8
Идентификатор кодека/Информация : UTF-8 Plain Text
Заголовок : SomeWax
Язык : Russian
Default : Нет
Forced : Нет
Текст #2
Идентификатор : 10
Формат : UTF-8
Идентификатор кодека : S_TEXT/UTF8
Идентификатор кодека/Информация : UTF-8 Plain Text
Заголовок : лицензия
Язык : Russian
Default : Нет
Forced : Нет
Текст #3
Идентификатор : 11
Формат : UTF-8
Идентификатор кодека : S_TEXT/UTF8
Идентификатор кодека/Информация : UTF-8 Plain Text
Заголовок : оригинал
Язык : English
Default : Нет
Forced : Нет
Текст #4
Идентификатор : 12
Формат : UTF-8
Идентификатор кодека : S_TEXT/UTF8
Идентификатор кодека/Информация : UTF-8 Plain Text
Заголовок : форсированные для дорожки №3
Язык : Russian
Default : Нет
Forced : Нет

Скриншот c названием фильма

Скриншоты


_________________
Показать сообщения:    

Текущее время: Сегодня 11:43

Часовой пояс: GMT



Вы не можете начинать темы
Вы не можете отвечать на сообщения
Вы не можете редактировать свои сообщения
Вы не можете удалять свои сообщения
Вы не можете голосовать в опросах
Вы не можете прикреплять файлы к сообщениям
Вы не можете скачивать файлы