Важное объявление!
У Нас Все раздачи мультитрекерные, при нуле пиров в релизах, можете смело вставать на закачку!
 
Автор Сообщение

HUNTER

Стаж:
4 года 4 месяца
Сообщений:
56749

Репутация: 101

[+] [-]
Вне форума [Профиль] [ЛС]


Хороший динозавр
The Good Dinosaur
«Tiny but tough»
-
Страна: США | Pixar Animation Studios, Walt Disney Pictures
Жанр: фэнтези, комедия, приключения, семейный
Продолжительность: 01:33:39
Год выпуска: 2015
Перевод: Профессиональный (дублированный) iTunes
Русские субтитры: есть-Режиссёр: Питер Сон / Peter Sohn
Роли озвучивали: Джеффри Райт, Фрэнсис МакДорманд, Малиа Нипай-Падилья, Райан Типл, Джек МакГроу, Маркус Скрибнер, Рэймонд Очоа, Джек Брайт, Питер Сон, Стив Зан, Мэнди Фройнд, Стивен Клэй Хантер, А.Дж. Бакли, Анна Пакуин, Сэм Эллиотт, Дэвид Боат, Кэрри Пафф, Кэлам Грант, Джон Ратценбергер-ОписаниеПо сюжету динозавры не вымерли, а эволюционировали в разумных существ и живут и здравствуют на Земле. А вот люди остались на довольно примитивной стадии развития. Фильм расскажет историю дружбы динозавра и маленького мальчика.-
Хороший динозавр — американский компьютеро-анимационный фильм студии Pixar. Премьера состоялась 25 ноября 2015 года. Режиссёр — Питер Сон, ранее работавший над мультфильмом «Переменная облачность»
Релиз:

Сэмпл

IMDb: 6.90 (29 869)
Качество: BDRip-AVC The Good Dinosaur 2015 1080p Blu-ray Remux AVC DTS-HD MA 7.1 - KRaLiMaRKo
Формат: MKV
Видео: AVC 4101 Kbps 1152 x 482 (2.390) 23.976 fps
Аудио: AC-3 384 Kbps 6 channels, 48.0 KHz DUB iTunes
Аудио 2: AC-3 448 Kbps 6 channels, 48.0 KHz Eng
Субтитры: Rus, Eng, Fre, Spa

MI | Log

Log
x264 [info]: frame I:1184 Avg QP:16.27 size:141053
x264 [info]: frame P:36577 Avg QP:17.79 size: 41103
x264 [info]: frame B:96949 Avg QP:20.51 size: 13191
x264 [info]: consecutive B-frames: 6.3% 4.0% 10.9% 32.4% 18.5% 20.7% 3.2% 1.6% 0.7% 0.7% 0.3% 0.2% 0.7%
x264 [info]: mb I I16..4: 4.4% 65.7% 29.8%
x264 [info]: mb P I16..4: 0.7% 14.0% 3.3% P16..4: 26.7% 25.2% 17.0% 4.7% 1.3% skip: 7.1%
x264 [info]: mb B I16..4: 0.3% 3.2% 0.8% B16..8: 27.2% 19.8% 4.4% direct: 8.0% skip:36.3% L0:38.6% L1:40.1% BI:21.3%
x264 [info]: 8x8 transform intra:75.4% inter:52.0%
x264 [info]: direct mvs spatial:99.8% temporal:0.2%
x264 [info]: coded y,uvDC,uvAC intra: 86.7% 91.6% 75.5% inter: 30.2% 25.5% 8.9%
x264 [info]: i16 v,h,dc,p: 19% 21% 5% 55%
x264 [info]: i8 v,h,dc,ddl,ddr,vr,hd,vl,hu: 9% 12% 8% 9% 12% 10% 13% 11% 16%
x264 [info]: i4 v,h,dc,ddl,ddr,vr,hd,vl,hu: 36% 9% 6% 6% 9% 8% 9% 7% 10%
x264 [info]: i8c dc,h,v,p: 37% 28% 16% 18%
x264 [info]: Weighted P-Frames: Y:6.2% UV:4.6%
x264 [info]: ref P L0: 55.6% 12.5% 11.7% 5.2% 3.6% 3.1% 2.4% 1.6% 1.4% 1.3% 1.3% 0.3% 0.0%
x264 [info]: ref B L0: 75.5% 9.4% 5.4% 2.6% 2.2% 1.6% 1.5% 1.0% 0.6% 0.3%
x264 [info]: ref B L1: 92.9% 7.1%
x264 [info]: kb/s:4199.34
x264 [total]: encoded 134710 frames, 7.80 fps, 4199.34 kb/s, duration 4:47:47.98
Format : Matroska
Format version : Version 4 / Version 2
File size : 3.29 GiB
Duration : 1h 33mn
Overall bit rate : 5 034 Kbps
Encoded date : UTC 2016-03-15 19:37:02
Writing application : mkvmerge v6.7.0 ('Back to the Ground') 32bit built on Jan 8 2014 15:03:17
Writing library : libebml v1.3.0 + libmatroska v1.4.1
Video
ID : 1
Format : AVC
Format/Info : Advanced Video Codec
Format profile : High@L4.1
Format settings, CABAC : Yes
Format settings, ReFrames : 11 frames
Codec ID : V_MPEG4/ISO/AVC
Duration : 1h 33mn
Bit rate : 4 101 Kbps
Width : 1 152 pixels
Height : 482 pixels
Display aspect ratio : 2.40:1
Frame rate mode : Constant
Frame rate : 23.976 (24000/1001) fps
Color space : YUV
Chroma subsampling : 4:2:0
Bit depth : 8 bits
Scan type : Progressive
Bits/(Pixel*Frame) : 0.308
Stream size : 2.68 GiB (81%)
Title : The Good Dinosaur (2015) [rutracker.org]
Writing library : x264 core 148 r2638kMod 7599210
Encoding settings : cabac=1 / ref=11 / deblock=1:-2:-2 / analyse=0x3:0x133 / me=umh / subme=11 / psy=1 / fade_compensate=0.00 / psy_rd=1.00:0.05 / mixed_ref=1 / me_range=48 / chroma_me=1 / trellis=2 / 8x8dct=1 / cqm=0 / deadzone=21,11 / fast_pskip=0 / chroma_qp_offset=-3 / threads=12 / lookahead_threads=3 / sliced_threads=0 / nr=0 / decimate=1 / interlaced=0 / bluray_compat=0 / constrained_intra=0 / fgo=0 / bframes=12 / b_pyramid=2 / b_adapt=2 / b_bias=0 / direct=3 / weightb=1 / open_gop=0 / weightp=2 / keyint=250 / keyint_min=23 / scenecut=40 / intra_refresh=0 / rc_lookahead=60 / rc=crf / mbtree=0 / crf=16.9000 / qcomp=0.60 / qpmin=0 / qpmax=69 / qpstep=4 / vbv_maxrate=50000 / vbv_bufsize=62500 / crf_max=0.0 / nal_hrd=none / filler=0 / ip_ratio=1.40 / pb_ratio=1.30 / aq=3:0.90
Language : English
Default : Yes
Forced : No
Audio #1
ID : 2
Format : AC-3
Format/Info : Audio Coding 3
Mode extension : CM (complete main)
Format settings, Endianness : Big
Codec ID : A_AC3
Duration : 1h 33mn
Bit rate mode : Constant
Bit rate : 384 Kbps
Channel(s) : 6 channels
Channel positions : Front: L C R, Side: L R, LFE
Sampling rate : 48.0 KHz
Frame rate : 31.250 fps (1536 spf)
Compression mode : Lossy
Stream size : 257 MiB (8%)
Title : DUB [iTunes]
Language : Russian
Default : Yes
Forced : No
Audio #2
ID : 3
Format : AC-3
Format/Info : Audio Coding 3
Mode extension : CM (complete main)
Format settings, Endianness : Big
Codec ID : A_AC3
Duration : 1h 33mn
Bit rate mode : Constant
Bit rate : 448 Kbps
Channel(s) : 6 channels
Channel positions : Front: L C R, Side: L R, LFE
Sampling rate : 48.0 KHz
Frame rate : 31.250 fps (1536 spf)
Compression mode : Lossy
Stream size : 300 MiB (9%)
Title : Original
Language : English
Default : No
Forced : No
Text #1
ID : 4
Format : UTF-8
Codec ID : S_TEXT/UTF8
Codec ID/Info : UTF-8 Plain Text
Title : Full
Language : Russian
Default : No
Forced : No
Text #2
ID : 5
Format : UTF-8
Codec ID : S_TEXT/UTF8
Codec ID/Info : UTF-8 Plain Text
Title : Full
Language : English
Default : No
Forced : No
Text #3
ID : 6
Format : UTF-8
Codec ID : S_TEXT/UTF8
Codec ID/Info : UTF-8 Plain Text
Title : SDH
Language : English
Default : No
Forced : No
Text #4
ID : 7
Format : UTF-8
Codec ID : S_TEXT/UTF8
Codec ID/Info : UTF-8 Plain Text
Title : Full
Language : French
Default : No
Forced : No
Text #5
ID : 8
Format : UTF-8
Codec ID : S_TEXT/UTF8
Codec ID/Info : UTF-8 Plain Text
Title : Full
Language : Spanish
Default : No
Forced : No
Menu
00:00:00.000 : en:00:00:00.000
00:03:37.968 : en:00:03:37.968
00:06:16.459 : en:00:06:16.459
00:08:14.160 : en:00:08:14.160
00:12:12.607 : en:00:12:12.607
00:14:33.915 : en:00:14:33.915
00:17:42.353 : en:00:17:42.353
00:21:10.644 : en:00:21:10.644
00:22:58.168 : en:00:22:58.168
00:26:41.058 : en:00:26:41.058
00:29:02.616 : en:00:29:02.616
00:33:10.363 : en:00:33:10.363
00:35:28.668 : en:00:35:28.668
00:38:14.459 : en:00:38:14.459
00:41:08.841 : en:00:41:08.841
00:45:42.948 : en:00:45:42.948
00:47:47.948 : en:00:47:47.948
00:51:48.272 : en:00:51:48.272
00:55:46.969 : en:00:55:46.969
01:00:22.953 : en:01:00:22.953
01:03:59.002 : en:01:03:59.002
01:05:27.215 : en:01:05:27.215
01:07:11.778 : en:01:07:11.778
01:11:06.429 : en:01:11:06.429
01:13:43.377 : en:01:13:43.377
01:16:01.432 : en:01:16:01.432
01:19:08.494 : en:01:19:08.494
01:23:56.865 : en:01:23:56.865
01:26:01.114 : en:01:26:01.114[/pre]

_________________
Показать сообщения:    

Текущее время: Сегодня 19:29

Часовой пояс: GMT



Вы не можете начинать темы
Вы не можете отвечать на сообщения
Вы не можете редактировать свои сообщения
Вы не можете удалять свои сообщения
Вы не можете голосовать в опросах
Вы не можете прикреплять файлы к сообщениям
Вы не можете скачивать файлы