Важное объявление!
У Нас Все раздачи мультитрекерные, при нуле пиров в релизах, можете смело вставать на закачку!
 
Автор Сообщение

HUNTER

Стаж:
4 года 4 месяца
Сообщений:
56755

Репутация: 101

[+] [-]
Вне форума [Профиль] [ЛС]

Хорошее убийство / Good Kill
Страна: США
Студия: Voltage Pictures, Dune Films, Sobini Films
Жанр: триллер, драма
Год выпуска: 2014
Продолжительность: 01:42:34
Перевод: Профессиональный (многоголосый закадровый) iTunes
Cубтитры: английские
Оригинальная аудиодорожка: английский
Режиссер: Эндрю Никкол / Andrew Niccol
В ролях: Дженьюэри Джонс, Итан Хоук, Зои Кравиц, Джейк Эйбел, Брюс Гринвуд, Альма Сиснерос, Кристен Рейкс, Рич Чавез, Майкл Шитс, Билл Сьюард
Описание: Действие фильма развернется вокруг летчика, управляющего беспилотным истребителем из Лос-Анджелеса. Каждый день он атакует талибов на другом конце земного шара, а по вечерам отправляется домой, где его ждут скандалы с женой и детьми. Устав от такой жизни, главный герой начинает сомневаться в правильности своей миссии. Ведь сколько бы террористов он не убил, им на смену приходят новые.

Исходник: Good Kill 2014 1080p Blu-ray AVC DTS-HD MA 5.1-HDArea
Тип релиза: BDRip 1080p
Контейнер: MKV
Видео: MPEG-4 AVC, 14.3 Mбит/с, 1920x804, 23,976 fps
Аудио: Rus, AC3, 384 kb/s (6 ch), 48 kHz
Аудио 2: Eng, DTS, 1510 kb/s (6 ch), 48 kHz
Формат субтитров: softsub (SRT)

MediaInfo

Format : Matroska
Format version : Version 4 / Version 2
File size : 11.9 GiB
Duration : 1h 42mn
Overall bit rate : 16.5 Mbps
Movie name : Хорошее убийство. (Tonik)
Encoded date : UTC 2015-08-25 11:36:04
Writing application : mkvmerge v7.1.0 ('Good Love') 64bit built on Jul 27 2014 13:06:55
Writing library : libebml v1.3.0 + libmatroska v1.4.1
_STATISTICS_WRITING_APP : mkvmerge v7.1.0 ('Good Love') 64bit built on Jul 27 2014 13:06:55
_STATISTICS_WRITING_DATE_UTC : 2015-08-25 11:36:04
_STATISTICS_TAGS : BPS DURATION NUMBER_OF_FRAMES NUMBER_OF_BYTES
DURATION : 01:36:17.063000000
NUMBER_OF_FRAMES : 1068
NUMBER_OF_BYTES : 37862
Video
ID : 1
Format : AVC
Format/Info : Advanced Video Codec
Format profile : High@L4.1
Format settings, CABAC : Yes
Format settings, ReFrames : 4 frames
Codec ID : V_MPEG4/ISO/AVC
Duration : 1h 42mn
Bit rate : 14.3 Mbps
Width : 1 920 pixels
Height : 804 pixels
Display aspect ratio : 2.40:1
Frame rate mode : Constant
Frame rate : 23.976 fps
Color space : YUV
Chroma subsampling : 4:2:0
Bit depth : 8 bits
Scan type : Progressive
Bits/(Pixel*Frame) : 0.387
Stream size : 10.3 GiB (87%)
Writing library : x264 core 146 r2538 121396c
Encoding settings : cabac=1 / ref=4 / deblock=1:-3:-3 / analyse=0x3:0x113 / me=umh / subme=10 / psy=1 / psy_rd=1.00:0.00 / mixed_ref=1 / me_range=24 / chroma_me=1 / trellis=2 / 8x8dct=1 / cqm=0 / deadzone=21,11 / fast_pskip=1 / chroma_qp_offset=-2 / threads=6 / lookahead_threads=1 / sliced_threads=0 / nr=0 / decimate=1 / interlaced=0 / bluray_compat=0 / constrained_intra=0 / bframes=8 / b_pyramid=2 / b_adapt=2 / b_bias=0 / direct=1 / weightb=1 / open_gop=0 / weightp=2 / keyint=250 / keyint_min=25 / scenecut=40 / intra_refresh=0 / rc_lookahead=60 / rc=crf / mbtree=0 / crf=16.0 / qcomp=0.60 / qpmin=0 / qpmax=69 / qpstep=4 / vbv_maxrate=62500 / vbv_bufsize=78125 / crf_max=0.0 / nal_hrd=none / filler=0 / ip_ratio=1.40 / pb_ratio=1.30 / aq=1:0.80
Language : English
Default : Yes
Forced : No
Audio #1
ID : 2
Format : AC-3
Format/Info : Audio Coding 3
Mode extension : CM (complete main)
Format settings, Endianness : Big
Codec ID : A_AC3
Duration : 1h 42mn
Bit rate mode : Constant
Bit rate : 384 Kbps
Channel(s) : 6 channels
Channel positions : Front: L C R, Side: L R, LFE
Sampling rate : 48.0 KHz
Bit depth : 16 bits
Compression mode : Lossy
Stream size : 282 MiB (2%)
Language : Russian
Default : Yes
Forced : No
Audio #2
ID : 3
Format : DTS
Format/Info : Digital Theater Systems
Mode : 16
Format settings, Endianness : Big
Codec ID : A_DTS
Duration : 1h 42mn
Bit rate mode : Constant
Bit rate : 1 509 Kbps
Channel(s) : 6 channels
Channel positions : Front: L C R, Side: L R, LFE
Sampling rate : 48.0 KHz
Bit depth : 24 bits
Compression mode : Lossy
Stream size : 1.08 GiB (9%)
Language : English
Default : No
Forced : No
Text
ID : 4
Format : UTF-8
Codec ID : S_TEXT/UTF8
Codec ID/Info : UTF-8 Plain Text
Language : English
Default : No
Forced : No
Menu
00:00:00.000 : en:Chapter 01
00:07:27.906 : en:Chapter 02
00:14:58.731 : en:Chapter 03
00:22:25.219 : en:Chapter 04
00:31:12.537 : en:Chapter 05
00:42:20.204 : en:Chapter 06
00:50:33.572 : en:Chapter 07
00:58:21.790 : en:Chapter 08
01:05:58.496 : en:Chapter 09
01:13:46.881 : en:Chapter 10
01:21:05.360 : en:Chapter 11
01:28:32.349 : en:Chapter 12
01:37:03.693 : en:Chapter 13

Скриншоты


_________________
Показать сообщения:    

Текущее время: Сегодня 12:34

Часовой пояс: GMT



Вы не можете начинать темы
Вы не можете отвечать на сообщения
Вы не можете редактировать свои сообщения
Вы не можете удалять свои сообщения
Вы не можете голосовать в опросах
Вы не можете прикреплять файлы к сообщениям
Вы не можете скачивать файлы