Важное объявление!
У Нас Все раздачи мультитрекерные, при нуле пиров в релизах, можете смело вставать на закачку!
 
Автор Сообщение

HUNTER

Стаж:
4 года 4 месяца
Сообщений:
56790

Репутация: 101

[+] [-]
Вне форума [Профиль] [ЛС]

Холодным днём в парке / Than Cold day in the park
Страна: США, Канада
Жанр: драма
Год выпуска: 1969
Продолжительность: 01:47:21
Перевод: Одноголосый закадровый Мика Бондарик
Cубтитры: нет
Оригинальная аудиодорожка: английский
Режиссер: Роберт Олтмен / Robert Altman
В ролях: Сэнди Деннис, Майкл Барнс, Сюзанна Бентон, Дэвид Гарфилд, Луана Андерс
Описание: Симпатичная, сдержанная и богатая незамужняя женщина в Ванкувере видит подростка, сидящего в парке под дождем. Она приглашает юношу к себе домой. На что она готова пойти, чтобы удержать его?
Сэмпл: http://multi-up.com/1028199
Тип релиза: BDRip 720p
Контейнер: MKV
Видео: MPEG-4 AVC, 1280х720, 16:9, 23.976 fps, 10,2 Mbps, 0.463 bit/pixel
Аудио: Русский, ac3, 48.0 KHz, 1 channel (mono), 320 Kbps
Аудио 2: Английский, DTS, 48.0 KHz, 1 channel (mono), 768 Kbps

MediaInfo

General
Unique ID : 251474002227736291616122097186253422530 (0xBD302190973C5A10A12A312E6735BFC2)
Complete name : That_Cold_Day_in_the_Park_ 1969_720p_BdRip_Rus_Eng.mkv
Format : Matroska
Format version : Version 4 / Version 2
File size : 8.65 GiB
Duration : 1h 47mn
Overall bit rate : 11.5 Mbps
Encoded date : UTC 2015-01-22 16:52:28
Writing application : mkvmerge v7.5.0 ('Glass Culture') 64bit built on Jan 4 2015 16:48:44
Writing library : libebml v1.3.1 + libmatroska v1.4.2
DURATION : 01:47:15.040000000
NUMBER_OF_FRAMES : 201095
NUMBER_OF_BYTES : 257401600
_STATISTICS_WRITING_APP : mkvmerge v7.5.0 ('Glass Culture') 64bit built on Jan 4 2015 16:48:44
_STATISTICS_WRITING_DATE_UTC : 2015-01-22 16:52:28
_STATISTICS_TAGS : BPS DURATION NUMBER_OF_FRAMES NUMBER_OF_BYTES
Video
ID : 1
Format : AVC
Format/Info : Advanced Video Codec
Format profile : High@L4.1
Format settings, CABAC : Yes
Format settings, ReFrames : 9 frames
Codec ID : V_MPEG4/ISO/AVC
Duration : 1h 47mn
Bit rate : 10.2 Mbps
Width : 1 280 pixels
Height : 720 pixels
Display aspect ratio : 16:9
Frame rate mode : Constant
Frame rate : 23.976 fps
Color space : YUV
Chroma subsampling : 4:2:0
Bit depth : 8 bits
Scan type : Progressive
Bits/(Pixel*Frame) : 0.463
Stream size : 7.66 GiB (89%)
Writing library : x264 core 133 r2334 a3ac64b
Encoding settings : cabac=1 / ref=9 / deblock=1:-3:-3 / analyse=0x3:0x133 / me=umh / subme=9 / psy=1 / psy_rd=1.10:0.01 / mixed_ref=1 / me_range=44 / chroma_me=1 / trellis=2 / 8x8dct=1 / cqm=0 / deadzone=21,11 / fast_pskip=0 / chroma_qp_offset=-3 / threads=18 / lookahead_threads=4 / sliced_threads=0 / nr=0 / decimate=0 / interlaced=0 / bluray_compat=0 / constrained_intra=0 / bframes=14 / b_pyramid=2 / b_adapt=2 / b_bias=0 / direct=3 / weightb=1 / open_gop=0 / weightp=2 / keyint=250 / keyint_min=23 / scenecut=40 / intra_refresh=0 / rc=crf / mbtree=0 / crf=18.8 / qcomp=0.70 / qpmin=0 / qpmax=69 / qpstep=4 / ip_ratio=1.30 / pb_ratio=1.30 / aq=1:0.60
Language : English
Default : Yes
Forced : No
Matrix coefficients : BT.709
Audio #1
ID : 2
Format : AC-3
Format/Info : Audio Coding 3
Mode extension : CM (complete main)
Format settings, Endianness : Big
Codec ID : A_AC3
Duration : 1h 47mn
Bit rate mode : Constant
Bit rate : 320 Kbps
Channel(s) : 1 channel
Channel positions : Front: C
Sampling rate : 48.0 KHz
Bit depth : 16 bits
Compression mode : Lossy
Stream size : 246 MiB (3%)
Language : Russian
Default : Yes
Forced : No
Audio #2
ID : 3
Format : DTS
Format/Info : Digital Theater Systems
Mode : 16
Format settings, Endianness : Big
Codec ID : A_DTS
Duration : 1h 47mn
Bit rate mode : Constant
Bit rate : 768 Kbps
Channel(s) : 1 channel
Channel positions : Front: C
Sampling rate : 48.0 KHz
Bit depth : 24 bits
Compression mode : Lossy
Stream size : 590 MiB (7%)
Language : English
Default : No
Forced : No

Скриншоты


_________________
Показать сообщения:    

Текущее время: Сегодня 10:17

Часовой пояс: GMT



Вы не можете начинать темы
Вы не можете отвечать на сообщения
Вы не можете редактировать свои сообщения
Вы не можете удалять свои сообщения
Вы не можете голосовать в опросах
Вы не можете прикреплять файлы к сообщениям
Вы не можете скачивать файлы