Важное объявление!
У Нас Все раздачи мультитрекерные, при нуле пиров в релизах, можете смело вставать на закачку!
 
Автор Сообщение

HUNTER

Стаж:
4 года 4 месяца
Сообщений:
56765

Репутация: 101

[+] [-]
Вне форума [Профиль] [ЛС]

Хоббит: Пустошь Смауга / The Hobbit: The Desolation of Smaug / Расширенная версия / Extended Cut
-Год выпуска: 2013
Страна: США, Новая Зеландия
Студия: Warner Bros Entertainment, New Line Cinema, Metro-Goldwyn-Mayer (MGM)
Жанр: фэнтези, приключения
Продолжительность: 03:06:36
  • Профессиональный (дублированный) Blu-ray CEE / CP Дистрибуция
  • Профессиональный (многоголосый закадровый) Омикрон |2 варианта|
  • Авторский (одноголосый закадровый) Юрий Сербин
  • Авторский (одноголосый закадровый) Василий Горчаков
Cубтитры: русские, украинские, английские
Оригинальная аудиодорожка: английский-Режиссер: Питер Джексон / Peter Jackson-В ролях: Мартин Фриман, Ричард Армитедж, Иэн МакКеллен, Эванджелин Лилли, Орландо Блум, Люк Эванс, Бенедикт Камбербэтч, Ли Пейс, Кен Стотт, Эйдан Тернер и другие.-Роли дублировали: Илья Хвостиков, Игорь Балалаев, Василий Бочкарев, Марьяна Спивак, Олег Вирозуб, Дмитрий Поляновский, Александр Головчанский, Антон Савенков, Борис Быстров, Александр Дзюба, Борис Токарев, Игорь Старосельцев, Александр Груздев, Григорий Шевчук, Владислав Копп, Михаил Белякович, Иван Жарков, Михаил Бескаравайный, Диомид Виноградов, Сергей Чихачев, Алексей Колган, Ольга Зубкова, Андрей Ташков, Даниил Эльдаров, Кирилл Продолятченко, Татьяна Ермилова, Екатерина Кузнецова, Александр Коврижных, Ярослав Строганов, Василий Стоноженко, Галина Казакова, Олег Форостенко и другие.-Описание: Продолжение путешествия хоббита Бильбо Бэггинса, волшебника Гэндальфа и 13 отважных гномов. Их компания обязана завершить своё путешествие к Одинокой горе. Там они должны встретиться с величайшей опасностью из всех — созданием куда более ужасающим, чем все их прошлые противники, которое проверит на прочность не только их мужество, но крепость их дружбы и правильность выбранного пути, — драконом Смаугом.-РЕЛИЗ ОТ: -Качество: BDRip 720p |EbP|
Формат: MKV
Видео кодек: H.264
Аудио кодек: AC3, DTS
Видео: H.264, 1280x534 (2.40:1), 23.976 fps, ~5360 kbps, 0.327 bit/pixel
Аудио:
  • русская |Blu-ray CEE|: DTS, 48 kHz, 6 ch, 1509 kbps
    русская |Омикрон (с озвученной речью эльфов и орков)|: DTS, 48 kHz, 6 ch, 1509 kbps
    русская |Омикрон|: DTS, 48 kHz, 6 ch, 1509 kbps
    русская |Юрий Сербин|: DTS, 48 kHz, 6 ch, 1509 kbps
    русская |Василий Горчаков|: DTS, 48 kHz, 6 ch, 1509 kbps
  • украинская |Blu-ray CEE|: AC3, 48 kHz, 6 ch, 448 kbps
  • английская |Оригинал|: DTS, 48 kHz, 6 ch, 1509 kbps
-Сэмпл \ Кинопоиск-

Скриншоты

Media Info

Код:
General
Unique ID                      : 234312701174761802866045281255922112688 (0xB046FC18DB25FED0BB097BBA30C098B0)
Complete name                  : E:\Video\HD\Movies (HD)\Hobbit The Desolation of Smaug (2013) (BDRip 720p l Extended Cut).mkv
Format                         : Matroska
Format version                 : Version 4 / Version 2
File size                      : 19.8 GiB
Duration                       : 3h 6mn
Overall bit rate               : 15.2 Mbps
Encoded date                   : UTC 2016-09-25 05:32:46
Writing application            : mkvmerge v8.8.0 ('Wind at my back') 32bit
Writing library                : libebml v1.3.3 + libmatroska v1.4.4
DURATION                       : 03:05:29.762000000
NUMBER_OF_FRAMES               : 2282
NUMBER_OF_BYTES                : 71994
_STATISTICS_WRITING_APP        : mkvmerge v8.8.0 ('Wind at my back') 32bit
_STATISTICS_WRITING_DATE_UTC   : 2016-09-25 05:32:46
_STATISTICS_TAGS               : BPS DURATION NUMBER_OF_FRAMES NUMBER_OF_BYTES
Video
ID                             : 1
Format                         : AVC
Format/Info                    : Advanced Video Codec
Format profile                 : High@L4.1
Format settings, CABAC         : Yes
Format settings, ReFrames      : 12 frames
Codec ID                       : V_MPEG4/ISO/AVC
Duration                       : 3h 6mn
Bit rate                       : 5 360 Kbps
Width                          : 1 280 pixels
Height                         : 534 pixels
Display aspect ratio           : 2.40:1
Original display aspect ratio  : 2.40:1
Frame rate mode                : Constant
Frame rate                     : 23.976 fps
Color space                    : YUV
Chroma subsampling             : 4:2:0
Bit depth                      : 8 bits
Scan type                      : Progressive
Bits/(Pixel*Frame)             : 0.327
Stream size                    : 6.99 GiB (35%)
Writing library                : x264 core 142 r2431+42 c69a006 tMod [8-bit@all X86_64]
Encoding settings              : cabac=1 / ref=12 / deblock=1:-3:-3 / analyse=0x3:0x113 / me=tesa / subme=10 / psy=1 / fade_compensate=0.00 / psy_rd=1.00:0.00 / mixed_ref=1 / me_range=24 / chroma_me=1 / trellis=2 / 8x8dct=1 / cqm=0 / deadzone=21,11 / fast_pskip=0 / chroma_qp_offset=-2 / threads=12 / lookahead_threads=2 / sliced_threads=0 / nr=0 / decimate=0 / interlaced=0 / bluray_compat=0 / constrained_intra=0 / fgo=0 / bframes=8 / b_pyramid=2 / b_adapt=2 / b_bias=0 / direct=3 / weightb=1 / open_gop=0 / weightp=2 / keyint=250 / keyint_min=23 / scenecut=40 / intra_refresh=0 / rc_lookahead=40 / rc=crf / mbtree=0 / crf=15.5000 / qcomp=0.65 / qpmin=0:0:0 / qpmax=69:69:69 / qpstep=4 / vbv_maxrate=50000 / vbv_bufsize=62500 / crf_max=0.0 / nal_hrd=none / filler=0 / ip_ratio=1.30 / pb_ratio=1.20 / aq=4:0.80 / aq-sensitivity=10.00 / aq-factor=1.00:1.00:1.00 / aq2=0 / aq3=0 / zones=5441,5476,q=13/11165,11196,q=13/11228,11340,q=13/21227,21291,q=13/21364,21522,q=13/21574,21624,q=13/21647,21680,q=13/85920,85991,q=13/86106,86236,q=13/166071,166142,q=13/237835,237917,q=13/245378,245422,q=13
Language                       : English
Default                        : Yes
Forced                         : No
DURATION                       : 03:06:34.892000000
NUMBER_OF_FRAMES               : 268409
NUMBER_OF_BYTES                : 7893306997
_STATISTICS_WRITING_APP        : mkvmerge v8.8.0 ('Wind at my back') 32bit
_STATISTICS_WRITING_DATE_UTC   : 2016-09-25 05:32:46
_STATISTICS_TAGS               : BPS DURATION NUMBER_OF_FRAMES NUMBER_OF_BYTES
Audio #1
ID                             : 2
Format                         : DTS
Format/Info                    : Digital Theater Systems
Mode                           : 16
Format settings, Endianness    : Big
Codec ID                       : A_DTS
Duration                       : 3h 6mn
Bit rate mode                  : Constant
Bit rate                       : 1 509 Kbps
Channel(s)                     : 6 channels
Channel positions              : Front: L C R, Side: L R, LFE
Sampling rate                  : 48.0 KHz
Bit depth                      : 24 bits
Compression mode               : Lossy
Stream size                    : 1.97 GiB (10%)
Title                          : DUB (Blu-ray CEE / CP Дистрибуция)
Language                       : Russian
Default                        : Yes
Forced                         : No
Audio #2
ID                             : 3
Format                         : DTS
Format/Info                    : Digital Theater Systems
Mode                           : 16
Format settings, Endianness    : Big
Codec ID                       : A_DTS
Duration                       : 3h 6mn
Bit rate mode                  : Constant
Bit rate                       : 1 509 Kbps
Channel(s)                     : 6 channels
Channel positions              : Front: L C R, Side: L R, LFE
Sampling rate                  : 48.0 KHz
Bit depth                      : 24 bits
Compression mode               : Lossy
Stream size                    : 1.97 GiB (10%)
Title                          : MVO (Омикрон + Озвученная речь эльфов и орков)
Language                       : Russian
Default                        : No
Forced                         : No
Audio #3
ID                             : 4
Format                         : DTS
Format/Info                    : Digital Theater Systems
Mode                           : 16
Format settings, Endianness    : Big
Codec ID                       : A_DTS
Duration                       : 3h 6mn
Bit rate mode                  : Constant
Bit rate                       : 1 509 Kbps
Channel(s)                     : 6 channels
Channel positions              : Front: L C R, Side: L R, LFE
Sampling rate                  : 48.0 KHz
Bit depth                      : 24 bits
Compression mode               : Lossy
Stream size                    : 1.97 GiB (10%)
Title                          : MVO (Омикрон)
Language                       : Russian
Default                        : No
Forced                         : No
Audio #4
ID                             : 5
Format                         : DTS
Format/Info                    : Digital Theater Systems
Mode                           : 16
Format settings, Endianness    : Big
Codec ID                       : A_DTS
Duration                       : 3h 6mn
Bit rate mode                  : Constant
Bit rate                       : 1 509 Kbps
Channel(s)                     : 6 channels
Channel positions              : Front: L C R, Side: L R, LFE
Sampling rate                  : 48.0 KHz
Bit depth                      : 24 bits
Compression mode               : Lossy
Stream size                    : 1.97 GiB (10%)
Title                          : AVO (Юрий Сербин)
Language                       : Russian
Default                        : No
Forced                         : No
Audio #5
ID                             : 6
Format                         : DTS
Format/Info                    : Digital Theater Systems
Mode                           : 16
Format settings, Endianness    : Big
Codec ID                       : A_DTS
Duration                       : 3h 6mn
Bit rate mode                  : Constant
Bit rate                       : 1 509 Kbps
Channel(s)                     : 6 channels
Channel positions              : Front: L C R, Side: L R, LFE
Sampling rate                  : 48.0 KHz
Bit depth                      : 24 bits
Compression mode               : Lossy
Stream size                    : 1.97 GiB (10%)
Title                          : AVO (Василий Горчаков)
Language                       : Russian
Default                        : No
Forced                         : No
Audio #6
ID                             : 7
Format                         : AC-3
Format/Info                    : Audio Coding 3
Mode extension                 : CM (complete main)
Format settings, Endianness    : Big
Codec ID                       : A_AC3
Duration                       : 3h 6mn
Bit rate mode                  : Constant
Bit rate                       : 448 Kbps
Channel(s)                     : 6 channels
Channel positions              : Front: L C R, Side: L R, LFE
Sampling rate                  : 48.0 KHz
Bit depth                      : 16 bits
Compression mode               : Lossy
Stream size                    : 598 MiB (3%)
Title                          : DUB (Blu-ray CEE / CP Дистрибуция)
Language                       : Ukrainian
Default                        : No
Forced                         : No
Audio #7
ID                             : 8
Format                         : DTS
Format/Info                    : Digital Theater Systems
Mode                           : 16
Format settings, Endianness    : Big
Codec ID                       : A_DTS
Duration                       : 3h 6mn
Bit rate mode                  : Constant
Bit rate                       : 1 509 Kbps
Channel(s)                     : 6 channels
Channel positions              : Front: L C R, Side: L R, LFE
Sampling rate                  : 48.0 KHz
Bit depth                      : 24 bits
Compression mode               : Lossy
Stream size                    : 1.97 GiB (10%)
Title                          : Original
Language                       : English
Default                        : No
Forced                         : No
Text #1
ID                             : 9
Format                         : UTF-8
Codec ID                       : S_TEXT/UTF8
Codec ID/Info                  : UTF-8 Plain Text
Title                          : Forced (Blu-ray CEE)
Language                       : Russian
Default                        : Yes
Forced                         : No
Text #2
ID                             : 10
Format                         : UTF-8
Codec ID                       : S_TEXT/UTF8
Codec ID/Info                  : UTF-8 Plain Text
Title                          : Full (Blu-ray CEE)
Language                       : Russian
Default                        : No
Forced                         : No
Text #3
ID                             : 11
Format                         : UTF-8
Codec ID                       : S_TEXT/UTF8
Codec ID/Info                  : UTF-8 Plain Text
Title                          : Forced (Blu-ray CEE)
Language                       : Ukrainian
Default                        : No
Forced                         : No
Text #4
ID                             : 12
Format                         : UTF-8
Codec ID                       : S_TEXT/UTF8
Codec ID/Info                  : UTF-8 Plain Text
Title                          : Full (Blu-ray CEE)
Language                       : Ukrainian
Default                        : No
Forced                         : No
Text #5
ID                             : 13
Format                         : UTF-8
Codec ID                       : S_TEXT/UTF8
Codec ID/Info                  : UTF-8 Plain Text
Title                          : Full
Language                       : English
Default                        : No
Forced                         : No
Text #6
ID                             : 14
Format                         : UTF-8
Codec ID                       : S_TEXT/UTF8
Codec ID/Info                  : UTF-8 Plain Text
Title                          : Full (SDH)
Language                       : English
Default                        : No
Forced                         : No
Text #7
ID                             : 15
Format                         : UTF-8
Codec ID                       : S_TEXT/UTF8
Codec ID/Info                  : UTF-8 Plain Text
Title                          : Full (SDH / Colored)
Language                       : English
Default                        : No
Forced                         : No
Menu
00:00:00.000                   : :The Quest for Erebor / В поисках Эребора
00:07:33.411                   : :Wilderland / Дикие земли
00:12:00.302                   : :The Master Summons / Зов Мастера
00:12:59.445                   : :A Commander of Legions / Командир легионов
00:15:55.371                   : :Queer Lodgings / Небывалое пристанище
00:20:56.922                   : :Last of the Skin-changers / Последний из оборотней
00:23:15.435                   : :Where the Shadows Lie / Там, где тени
00:25:52.676                   : :The Elven-gate / Эльфийские врата
00:29:59.255                   : :Mirkwood / Лихолесье
00:38:14.041                   : :Flies and Spiders / Мухи и пауки
00:46:43.842                   : :The Woodland Realm / Лесное царство
00:49:46.316                   : :The Elvenking / Король эльфов
00:53:19.529                   : :King and Captain / Король и капитан
00:55:10.223                   : :Feast of Starlight / Праздник лунного света
00:58:07.859                   : :Barrels Out of Bond / В бочках из тюрьмы
01:08:42.326                   : :The High Fells / Падшие твари
01:12:22.338                   : :Bard the Bowman /  Бард Лучник
01:15:45.707                   : :The Nature of Evil / Природа зла
01:19:10.162                   : :Smuggled Cargo / Контрабандный груз
01:22:46.836                   : :Lake-town / Озёрный город
01:25:09.687                   : :The Master of Lake-town / Хозяин Озёрного города
01:28:07.740                   : :The World of Men / Мир людей
01:31:15.553                   : :The Home of Bard / Дом Барда
01:36:02.756                   : :«It Is Our Fight» / «Это наша борьба»
01:37:35.891                   : :The Prophecy / Пророчество
01:40:35.404                   : :A Warm Welcome / Радушный приём
01:45:16.518                   : :The Parting of the Company / Разделение компании
01:48:44.476                   : :The Lonely Mountain / Одинокая гора
01:50:31.750                   : :A Spell of Concealment / Завеса тайны
01:52:36.541                   : :The Hidden Door / Потайная дверь
01:53:08.448                   : :Son of Thror / Сын Трора
01:59:16.357                   : :On the Doorstep / На пороге
02:07:11.832                   : :Kingsfoil / Королевский лист
02:07:39.109                   : :The Courage of Hobbits / Отвага хоббитов
02:09:22.671                   : :The Enemy Revealed / Враг раскрыт
02:12:48.585                   : :Inside Information / Внутренняя информация
02:22:00.845                   : :The Black Arrow / Чёрная стрела
02:22:43.429                   : :In the Dragon's Lair / В логове дракона
02:23:17.922                   : :Under Arrest / Под арестом
02:24:56.396                   : :Bilbo the Burgler / Грабитель Бильбо
02:26:45.087                   : :Smaug the Magnificent / Смауг Великолепный
02:29:18.824                   : :Orc Attach / Атака орков
02:33:12.975                   : :Confrontations / Сравнения
02:34:57.621                   : :Elvish Medicine / Лекарства эльфов
02:36:13.155                   : :Hunter and Hunted / Охотник и жертва
02:37:45.956                   : :«She Walks In Starlight» / «Она двигается в свете звёзд»
02:39:08.830                   : :A Desperate Plan / Отчаянный план
02:41:39.940                   : :Duel in Lake-town / Дуэль в Озёрном городе
02:44:06.002                   : :The Forges Relit / Кузницы вновь зажжены
02:51:16.683                   : :Smaug the Golden / Золотой Смауг
02:56:05.555                   : :Credits / Титры
-

_________________
Показать сообщения:    

Текущее время: Сегодня 01:29

Часовой пояс: GMT



Вы не можете начинать темы
Вы не можете отвечать на сообщения
Вы не можете редактировать свои сообщения
Вы не можете удалять свои сообщения
Вы не можете голосовать в опросах
Вы не можете прикреплять файлы к сообщениям
Вы не можете скачивать файлы