Важное объявление!
У Нас Все раздачи мультитрекерные, при нуле пиров в релизах, можете смело вставать на закачку!
 
Автор Сообщение

HUNTER

Стаж:
4 года 4 месяца
Сообщений:
56722

Репутация: 101

[+] [-]
Вне форума [Профиль] [ЛС]

Хоббит: Нежданное путешествие / The Hobbit: An Unexpected Journey«From the smallest beginnings come the greatest legends»-
Страна: США, Новая Зеландия
Жанр: фэнтези, приключения
Год выпуска: 2012
Продолжительность: 03:02:30-Перевод №1: Профессиональный (полное дублирование) | Blu-ray CEE
Перевод №2: Авторский (одноголосый закадровый) | Ю. Сербин
Перевод №3: Авторский (одноголосый закадровый) | В. Горчаков
Оригинальная аудиодорожка: English
Cубтитры: Russian (forced), Russian, Ukrainian, English, English (SDH)-Режиссер: Питер Джексон / Peter Jackson
В ролях: Мартин Фриман, Иэн МакКеллен, Ричард Армитедж, Джеймс Несбитт, Кен Стотт, Грэм МакТавиш, Дин О’Горман, Эйдан Тернер, Джед Брофи, Марк Хэдлоу-Описание: Фильм повествует о путешествии Бильбо Бэггинса, который пускается в грандиозный поход, целью которого является отвоевание утраченного королевства гномов Эребор у зловещего дракона Смауга. Совершенно неожиданно с хоббитом налаживает контакт волшебник Гэндальф Серый. Так Бильбо находит себя, присоединяясь к компании тринадцати гномов, возглавляемых легендарным воином, Торином Дубощитом. Их путешествие проляжет через Дикий Край, через предательские земли, населенные гоблинами и орками, смертоносными варгами и гигантскими пауками, народом, меняющим шкуры, и волшебниками.
И хотя их цель находится на Востоке, среди пустошей Одинокой Горы, сначала им придется выбраться из туннелей гоблинов, где Бильбо встретит существо, которое изменит его жизнь навсегда… Голлума.
Здесь, один на один с Голлумом, на берегу подземного озера, непритязательный Бильбо Бэггинс обнаружит не только скрытые в глубине души хитрость и отвагу, которые удивят даже его, но и завладеет «прелестным» колечком Голлума, которое обладает нежданными и полезными свойствами… Простое золотое кольцо, c которым связана судьба всего Средиземья, нитями, о которых Бильбо не мог даже вообразить.-IMDB | КиноПоиск | Сэмпл-Качество видео: BDRip 1080p
Формат видео: MKV-Видео: 1920x800 at 23.976 fps, x264@L4.1, crf, ~14297 kbps avg
Аудио №1: 48 kHz, AC3, 3/2 (L,C,R,l,r) + LFE ch, ~448 kbps avg | Профессиональный (полное дублирование) | Blu-ray CEE
Аудио №2: 48 kHz, DTS, 3/2 (L,C,R,l,r) + LFE ch, ~1509 kbps avg | Авторский (одноголосый закадровый) | Ю. Сербин
Аудио №3: 48 kHz, DTS, 3/2 (L,C,R,l,r) + LFE ch, ~1509 kbps avg | Авторский (одноголосый закадровый) | В. Горчаков
Аудио №4: 48 kHz, DTS, 3/2 (L,C,R,l,r) + LFE ch, ~1509 kbps avg | English-Формат субтитров: softsub (*.srt)
Навигация по главам: Присутствует (подписанная)-

MediaInfo

General
Unique ID : 192853203363070216251096784168531412534 (0x91162D0946B609CFA9BBC632F53E4636)
Complete name : D:\Фильмы\The.Hobbit.An.Unexpected.Journey.2012.Extended.Cut.1080p.BluRay.3xRus.Eng.HDCLUB.mkv
Format : Matroska
Format version : Version 4 / Version 2
File size : 24.6 GiB
Duration : 3h 2mn
Overall bit rate : 19.3 Mbps
Movie name : The Hobbit: An Unexpected Journey (2012) - Release for HDCLUB
Encoded date : UTC 2013-12-28 13:49:59
Writing application : mkvmerge v6.6.0 ('The Edge Of The In Between') built on Dec 1 2013 17:55:00
Writing library : libebml v1.3.0 + libmatroska v1.4.1
Attachment : Yes
Video
ID : 1
Format : AVC
Format/Info : Advanced Video Codec
Format profile : High@L4.1
Format settings, CABAC : Yes
Format settings, ReFrames : 5 frames
Codec ID : V_MPEG4/ISO/AVC
Duration : 3h 2mn
Bit rate : 13.9 Mbps
Width : 1 920 pixels
Height : 800 pixels
Display aspect ratio : 2.40:1
Frame rate mode : Constant
Frame rate : 23.976 fps
Color space : YUV
Chroma subsampling : 4:2:0
Bit depth : 8 bits
Scan type : Progressive
Bits/(Pixel*Frame) : 0.378
Stream size : 17.7 GiB (72%)
Title : Release for HDCLUB
Writing library : x264 core 138 r2358 9e941d1
Encoding settings : cabac=1 / ref=5 / deblock=1:-3:-3 / analyse=0x3:0x133 / me=tesa / subme=10 / psy=1 / psy_rd=0.95:0.00 / mixed_ref=1 / me_range=24 / chroma_me=1 / trellis=2 / 8x8dct=1 / cqm=0 / deadzone=21,11 / fast_pskip=0 / chroma_qp_offset=-2 / threads=12 / lookahead_threads=2 / sliced_threads=0 / nr=0 / decimate=0 / interlaced=0 / bluray_compat=0 / constrained_intra=0 / bframes=8 / b_pyramid=2 / b_adapt=2 / b_bias=0 / direct=3 / weightb=1 / open_gop=0 / weightp=2 / keyint=240 / keyint_min=23 / scenecut=40 / intra_refresh=0 / rc_lookahead=90 / rc=crf / mbtree=0 / crf=16.0 / qcomp=0.60 / qpmin=0 / qpmax=69 / qpstep=4 / vbv_maxrate=62500 / vbv_bufsize=78125 / crf_max=0.0 / nal_hrd=none / ip_ratio=1.20 / pb_ratio=1.10 / aq=1:0.80
Language : English
Default : Yes
Forced : No
Audio #1
ID : 2
Format : AC-3
Format/Info : Audio Coding 3
Mode extension : CM (complete main)
Format settings, Endianness : Big
Codec ID : A_AC3
Duration : 3h 2mn
Bit rate mode : Constant
Bit rate : 448 Kbps
Channel count : 6 channels
Channel positions : Front: L C R, Side: L R, LFE
Sampling rate : 48.0 KHz
Bit depth : 16 bits
Compression mode : Lossy
Stream size : 585 MiB (2%)
Title : Dub, Blu-ray CEE
Language : Russian
Default : Yes
Forced : No
Audio #2
ID : 3
Format : DTS
Format/Info : Digital Theater Systems
Mode : 16
Format settings, Endianness : Big
Codec ID : A_DTS
Duration : 3h 2mn
Bit rate mode : Constant
Bit rate : 1 509 Kbps
Channel count : 6 channels
Channel positions : Front: L C R, Side: L R, LFE
Sampling rate : 48.0 KHz
Bit depth : 24 bits
Compression mode : Lossy
Stream size : 1.92 GiB (8%)
Title : VO, Сербин
Language : Russian
Default : No
Forced : No
Audio #3
ID : 4
Format : DTS
Format/Info : Digital Theater Systems
Mode : 16
Format settings, Endianness : Big
Codec ID : A_DTS
Duration : 3h 2mn
Bit rate mode : Constant
Bit rate : 1 509 Kbps
Channel count : 6 channels
Channel positions : Front: L C R, Side: L R, LFE
Sampling rate : 48.0 KHz
Bit depth : 16 bits
Compression mode : Lossy
Stream size : 1.92 GiB (8%)
Title : VO, Горчаков
Language : Russian
Default : No
Forced : No
Audio #4
ID : 5
Format : DTS
Format/Info : Digital Theater Systems
Mode : 16
Format settings, Endianness : Big
Codec ID : A_DTS
Duration : 3h 2mn
Bit rate mode : Constant
Bit rate : 1 509 Kbps
Channel count : 6 channels
Channel positions : Front: L C R, Side: L R, LFE
Sampling rate : 48.0 KHz
Bit depth : 24 bits
Compression mode : Lossy
Stream size : 1.92 GiB (8%)
Language : English
Default : No
Forced : No
Text #1
ID : 6
Format : UTF-8
Codec ID : S_TEXT/UTF8
Codec ID/Info : UTF-8 Plain Text
Title : forced
Language : Russian
Default : Yes
Forced : No
Text #2
ID : 7
Format : UTF-8
Codec ID : S_TEXT/UTF8
Codec ID/Info : UTF-8 Plain Text
Language : Russian
Default : No
Forced : No
Text #3
ID : 8
Format : UTF-8
Codec ID : S_TEXT/UTF8
Codec ID/Info : UTF-8 Plain Text
Title : Blu-ray CEE
Language : Russian
Default : No
Forced : No
Text #4
ID : 9
Format : UTF-8
Codec ID : S_TEXT/UTF8
Codec ID/Info : UTF-8 Plain Text
Language : Ukrainian
Default : No
Forced : No
Text #5
ID : 10
Format : UTF-8
Codec ID : S_TEXT/UTF8
Codec ID/Info : UTF-8 Plain Text
Language : English
Default : No
Forced : No
Text #6
ID : 11
Format : UTF-8
Codec ID : S_TEXT/UTF8
Codec ID/Info : UTF-8 Plain Text
Title : SDH
Language : English
Default : No
Forced : No
Menu
00:00:00.000 : Prologue: The Fall of Erebor
00:10:11.903 : "In a Hole in the Ground There Lived a Hobbit"
00:14:08.723 : Very Old Friends
00:17:27.255 : Mr. Baggins
00:18:44.623 : An Unexpected Party
00:23:16.604 : "Blunt the Knives"
00:27:59.469 : A Map, A Key and A Contract
00:36:04.871 : "Misty Mountains"
00:41:17.266 : "...The World Ahead"
00:46:30.830 : The Battle of Azanulbizar
00:53:04.181 : Radagast the Brown
00:58:07.651 : Trollshaws
00:59:55.300 : Roast Mutton
01:10:42.405 : A Troll-hoard
01:15:01.831 : The Hill of Sorcery
01:18:52.811 : Warg-scouts
01:24:56.925 : Rivendell
01:30:34.429 : A Short Rest
01:34:10.603 : Moon Runes
01:37:24.464 : The Defiler
01:39:03.479 : The Last Homely House
01:41:40.803 : The White Council
01:50:22.533 : "Why the Halfling?"
01:52:59.773 : Over Hill
01:59:06.348 : Under Hill
02:03:57.513 : The Great Goblin
02:09:51.575 : Riddles in the Dark
02:23:21.426 : Biter and Beater
02:25:18.877 : The Ring
02:26:31.199 : Escape from Goblin Town
02:30:52.919 : The Pity of Bilbo
02:33:00.546 : "Home is Behind..."
02:35:52.593 : Out of the Frying Pan...
02:46:51.210 : A Good Omen
02:52:21.373 : Credits

Дополнительно

За перевод Сербина спасибо:
oleg-k, MyxAmoP, ultrajeka, DMX-92, Foots, ZeDOK, denis_mgn_1987, Andrey_Tula, DB73, foxlight, idalgo, dir, STONECOLD, xerman13, пуля, Эдуард, HPotter, zaq-qaz, Letyoha3, dark1982, Drodder, Daniel Rock, ValK, luka69, Chistobaev, Iceman, Roman Lee, urassiks, Werewolf77, GKillah, Ochkarik1, masta, Guyver, _shurik_, Loki1982, uchitel538, Bilko, fryak, carnivale, Ramis, phaeton77, User, El Capitain, DeASS, vik19662007.
За перевод Горчакова спасибо:
Splinter, Эдуард, Nadoelo, idalgo, Daniel Rock, DIEnis82, AlBeOne, dir, uchitel538, bla_, User, Andrey_Tula, luka69,Hattori Hanzo, Guyver, Диммон, El Capitain, Партизан, фёдор александрович, STONECOLD, I_Am_Hell, SavineX, Dr. Destructo, farti, xerman13, ultrajeka2, mazeu, gross1978.
Рип от DON

Скриншоты


_________________
Показать сообщения:    

Текущее время: Сегодня 11:29

Часовой пояс: GMT



Вы не можете начинать темы
Вы не можете отвечать на сообщения
Вы не можете редактировать свои сообщения
Вы не можете удалять свои сообщения
Вы не можете голосовать в опросах
Вы не можете прикреплять файлы к сообщениям
Вы не можете скачивать файлы