Важное объявление!
У Нас Все раздачи мультитрекерные, при нуле пиров в релизах, можете смело вставать на закачку!
 
Автор Сообщение

Savaris

Стаж:
5 лет 9 месяцев
Сообщений:
156

Репутация: 40

[+] [-]
Вне форума [Профиль] [ЛС]

Хеллсинг / Hellsing Ultimate-
Страна: Япония
Год выпуска: 2006-2012
Жанр: приключения, мистика, драма
Тип: OVA
Продолжительность: 10 эп. ~50 мин-Озвучка:
Профессиональная многоголосная MC Entertainment 1-4
Любительская двухголосная SHIZA Project 1-8,10 Viki & Azazel / 9 Azazel
Любительская одноголосная Тимофеев 1-6
Любительская одноголосная loster01 5-10-Русские субтитры: (внешние)
от MC Entertainment 1-4 эп.
от wip 1 эп. / Dusker 2-10 эп.
-Студии: , & -Режиссер: Токоро Томокадзу-Описание: На каждое действие найдётся противодействие – для борьбы с кровожадной нечистью в Великобритании был создан Королевский Орден Протестантских Рыцарей, которому служит древнейший вампир Алукард. Согласно заключённому договору, он подчиняется главе тайной организации «Хеллсинг».
У Ватикана свой козырь – особый Тринадцатый Отдел, организация «Искариот», в составе которой неубиваемый отец Александр. Для них Алукард ничем не отличается от остальных монстров.
Однако всем им придётся на время забыть о дрязгах между католической и англиканской церквями, когда на сцену выйдет могущественный враг из прошлого – загадочный Майор во главе секретной нацистской организации «Миллениум».
Но пока не началась битва за Англию, Алукард занят воспитанием новообращённой вампирши: Виктория Серас раньше служила в полиции, а теперь ей приходится привыкать к жизни в старинном особняке, к своим новым способностям и новым обязанностям. Даже хозяйка Алукарда, леди Интегра, не знает, зачем он обратил эту упрямую девушку...
Вторая экранизация манги Хирано Кота дотошно следует оригиналу, и потому заметно отличается от сериала, ведь именно чёрный юмор, реки крови, харизматичные враги и закрученный конфликт сделали «Хеллсинга» всемирно популярным.
© Расселл Д. Джонс, World Art-Качество: BDRip
Релиз/Автор рипа: ZaZa-Raws
Совместимость с бытовыми плеерами: Нет
Наличие линковки: Нет
Тип видео: без хардсаба
Формат: MKV
Видео: x264, 1920x1080, (16/9), ~6500кбит/с, 23.976fps, 10 bit
Аудио #1 (внешняя) русская - AC3, 6 ch, 384кбит/с, 48000Hz MC Entertainment
Аудио #2 (внешняя) русская - AAC, 2 ch, ~192кбит/с, 48000Hz SHIZA Project
Аудио #3 (внешняя) русская - AAC, 6 ch, 256кбит/с, 48000Hz Тимофеев
Аудио #4 (внешняя) русская - AC3, 6 ch, 640кбит/с, 48000Hz loster01
Аудио #5 (в контейнере) японская - AC3, 6 ch, 640кбит/с, 48000Hz-

Инструкции по просмотру

* Чтобы смотреть с озвучкой, необходимо из папки к примеру Rus sound [MC-Ent] переписать файлы в папку, где находятся видеофайлы. Далее, следует запустить плеер и переключиться на mka-дорожку. Подробное описание здесь
* Чтобы смотреть 10-битное видео (10bit), необходимо, исходя из ваших предпочтений используемого проигрывателя, воспользоваться
этой инструкцией.
* Чтобы смотреть с субтитрами, необходимо из папки к примеру Rus subs [MC-Ent] переписать файлы в папку, где находятся видеофайлы. В большинстве плееров, одноимённые субтитры подключатся автоматически.
-

Список эпизодов

01. OVA I
02. OVA II
03. OVA III
04. OVA IV
05. OVA V
06. OVA VI
07. OVA VII
08. OVA VIII
09. OVA IX
10. OVA X
-

Скриншоты

-

MediaInfo

General
Unique ID : 198561301512846882604636765465656036612 (0x95618400DA431AE881F8F93A7ADA0D04)
Complete name : C:\Торренты №2\Hellsing Ultimate OVA [BDRip 1080p]\Hellsing Ultimate OVA 04.mkv
Format : Matroska
Format version : Version 2
File size : 2.90 GiB
Duration : 56mn 19s
Overall bit rate : 7 360 Kbps
Encoded date : UTC 2013-03-08 10:12:58
Writing application : mkvmerge v2.9.7 ('Tenderness') built on Jul 1 2009 18:43:35
Writing library : libebml v0.7.7 + libmatroska v0.8.1
Video
ID : 1
Format : AVC
Format/Info : Advanced Video Codec
Format profile : High 10@L5.0
Format settings, CABAC : Yes
Format settings, ReFrames : 5 frames
Codec ID : V_MPEG4/ISO/AVC
Duration : 56mn 19s
Bit rate : 6 574 Kbps
Width : 1 920 pixels
Height : 1 080 pixels
Display aspect ratio : 16:9
Frame rate : 23.976 fps
Color space : YUV
Chroma subsampling : 4:2:0
Bit depth : 10 bits
Scan type : Progressive
Bits/(Pixel*Frame) : 0.132
Stream size : 2.59 GiB (89%)
Writing library : x264 core 125 r2208+677+32 26f090e tMod [10-bit@all X86_64]
Encoding settings : cabac=1 / ref=5 / deblock=1:-1:-1 / analyse=0x3:0x131 / me=esa / subme=10 / psy=1 / fade_compensate=0.00 / psy_rd=1.00:0.10 / mixed_ref=1 / me_range=32 / chroma_me=1 / trellis=2 / 8x8dct=1 / cqm=0 / deadzone=21,11 / fast_pskip=1 / chroma_qp_offset=-3 / threads=12 / lookahead_threads=2 / sliced_threads=0 / nr=0 / decimate=1 / interlaced=0 / bluray_compat=0 / constrained_intra=0 / fgo=0 / bframes=6 / b_pyramid=0 / b_adapt=2 / b_bias=0 / direct=3 / weightb=1 / open_gop=0 / weightp=2 / keyint=250 / keyint_min=23 / scenecut=40 / intra_refresh=0 / rc_lookahead=40 / rc=crf / mbtree=1 / crf=16.5000 / qcomp=0.60 / qpmin=0 / qpmax=69 / qpstep=4 / ip_ratio=1.40 / aq=1:1.20
Language : English
Audio
ID : 2
Format : AC-3
Format/Info : Audio Coding 3
Mode extension : CM (complete main)
Codec ID : A_AC3
Duration : 56mn 19s
Bit rate mode : Constant
Bit rate : 640 Kbps
Channel(s) : 6 channels
Channel positions : Front: L C R, Side: L R, LFE
Sampling rate : 48.0 KHz
Bit depth : 16 bits
Compression mode : Lossy
Stream size : 258 MiB (9%)
Language : Japanese
-

_________________

Показать сообщения:    

Текущее время: Сегодня 05:32

Часовой пояс: GMT



Вы не можете начинать темы
Вы не можете отвечать на сообщения
Вы не можете редактировать свои сообщения
Вы не можете удалять свои сообщения
Вы не можете голосовать в опросах
Вы не можете прикреплять файлы к сообщениям
Вы не можете скачивать файлы