Важное объявление!
У Нас Все раздачи мультитрекерные, при нуле пиров в релизах, можете смело вставать на закачку!
 
Автор Сообщение

HUNTER

Стаж:
4 года 4 месяца
Сообщений:
56798

Репутация: 101

[+] [-]
Вне форума [Профиль] [ЛС]

- Футурама / Futurama -Год выпуска:2011
Страна:США
Жанр:Фантастика, комедия
Продолжительность:~ 00:21:38
Кол-во эпизодов:26 из 26
Перевод:Профессиональный многоголосый
Роли озвучивали:
- Борис Быстров (Бендер, Зойдберг, Профессор и др.),
- Александр Коврижных (Фрай, Гермес, Зепп и др.),
- Ирина Савина (все женские голоса)
Субтитры: Отсутствуют-Режиссёр:Мэтт Гроунинг-Описание:
Долгожданный 6-ой сезон начинается ровно на том месте, где закончился последний полнометражный фильм "Футурама: В дикую зеленую даль". Главных героев на корабле Межпланетного экспресса преследует Зепп Браниган. Фрай и Лила наконец-то признаются друг другу в любви, а перед кораблем внезапно появляется огромная червоточина. Все единогласно, не смотря на предупреждения профессора, решают рискнуть и пролететь в неё.-Качество: WEB-DLRip
Формат: AVI
Видео: XviD, 720x400, 23 976 fps, ~1400 kbps
Аудио:1. Русский 2х2 (MP3, 2 ch, 128 Кбит/с)
Аудио:2. Английский (MP3, 2 ch, 128 Кбит/с)

Эпизоды

01. Перерождение / Rebirth
02. В Лилейском саду / In-A-Gadda-Da-Leela
03. Атака убойной проги / Attack of the Killer App
04. Поправка Бесконечность / Proposition Infinity
05. Код нда Винчи / The Duh-Vinci Code
06. Смертельный осмотр / Lethal Inspection
07. Опаздывающий Филип Дж. Фрай / The Late Philip J. Fry
08. Чертовы Коты! / That Darn Katz!
09. Происхождение по часовому механизму / A Clockwork Origin
10. Пленник Бендера / The Prisioner of Benda
11. Совместимые различия Лррра и Нднд / Lrrreconcilable Ndndifferences
12. Мутанты протестуют / The Mutants Are Revolting
13. Захватывающие праздники Футурамы / The Futurama Holiday Spectacular
14. Неутопия / Neutopia
15. Бендерама / Benderama
16. Призрак в машинах / Ghost in the Machines
17. Закон и Оракул / Law and Oracle
18. Молчание Клешней / The Silence of the Clamps
19. Привет, Лила, Лила / Yo Leela Leela
20. Все президентские головы / All the Presidents Heads
21. Мебиус Дик / Mobius Dick
22. Фрай, хранитель яйца / Fry am the Egg Man
23. Совет Зойдберга / The Tip of the Zoidberg
24. Простуженные воины / Cold Warriors
25. По часовой стрелке / Overclockwise
26. Реинкарнация / Reincarnation
-

MediaInfo

General
Format : AVI
Format/Info : Audio Video Interleave
File size : 225 MiB
Duration : 21mn 38s
Overall bit rate : 1 455 Kbps
Writing application : VirtualDubMod 1.5.10.2 (build 2540/release)
Writing library : VirtualDubMod build 2540/release
Video #0
ID : 0
Format : MPEG-4 Visual
Format profile : Advanced Simple@L5
Format settings, BVOP : 2
Format settings, QPel : No
Format settings, GMC : No warppoints
Format settings, Matrix : Default (H.263)
Codec ID : XVID
Codec ID/Hint : XviD
Duration : 21mn 38s
Bit rate : 1 185 Kbps
Width : 720 pixels
Height : 400 pixels
Display aspect ratio : 16:9
Frame rate : 23.976 fps
Color space : YUV
Chroma subsampling : 4:2:0
Bit depth : 8 bits
Scan type : Progressive
Compression mode : Lossy
Bits/(Pixel*Frame) : 0.172
Stream size : 183 MiB (81%)
Writing library : XviD 1.2.0.dev47 (UTC 2006-11-01)
Audio #1
ID : 1
Format : MPEG Audio
Format version : Version 1
Format profile : Layer 3
Mode : Joint stereo
Mode extension : MS Stereo
Codec ID : 55
Codec ID/Hint : MP3
Duration : 21mn 38s
Bit rate mode : Constant
Bit rate : 128 Kbps
Channel(s) : 2 channels
Sampling rate : 48.0 KHz
Compression mode : Lossy
Stream size : 19.8 MiB (9%)
Alignment : Aligned on interleaves
Interleave, duration : 42 ms (1.00 video frame)
Interleave, preload duration : 504 ms
Writing library : LAME3.97 (beta)
Audio #2
ID : 2
Format : MPEG Audio
Format version : Version 1
Format profile : Layer 3
Codec ID : 55
Codec ID/Hint : MP3
Duration : 21mn 38s
Bit rate mode : Constant
Bit rate : 128 Kbps
Channel(s) : 2 channels
Sampling rate : 48.0 KHz
Compression mode : Lossy
Stream size : 19.8 MiB (9%)
Alignment : Aligned on interleaves
Interleave, duration : 42 ms (1.00 video frame)
Interleave, preload duration : 504 ms
Writing library : LAME3.97
Encoding settings : -m s -V 4 -q 2 -lowpass 17 -b 128
-

Скриншоты

! Не стоит делать оформление таким большим шрифтом, он подходит для шапки темы. Не у всех ещё есть FullHD мониторы-ноутбуки!

_________________
Показать сообщения:    

Текущее время: Сегодня 21:17

Часовой пояс: GMT



Вы не можете начинать темы
Вы не можете отвечать на сообщения
Вы не можете редактировать свои сообщения
Вы не можете удалять свои сообщения
Вы не можете голосовать в опросах
Вы не можете прикреплять файлы к сообщениям
Вы не можете скачивать файлы