Важное объявление!
У Нас Все раздачи мультитрекерные, при нуле пиров в релизах, можете смело вставать на закачку!
 
Автор Сообщение

HUNTER

Стаж:
4 года 4 месяца
Сообщений:
56808

Репутация: 101

[+] [-]
Вне форума [Профиль] [ЛС]

Футбол - уроки профессионала для начинающих-

Год выпуска: 2009
Страна: Россия
Сайт производителя: отсутствует
Тематика: футбол
Тип материала: Обучающее видео-Продолжительность: 00:42:32
Автор: Алексей Заваров-Язык: Русский
Субтитры: отсутствуют-Описание: Какой спорт сегодня в мире самый популярный? Ответ очевиден: футбол! Миллионы людей являются профессиональными футболистами, сотни миллионов играют в эту игру ради удовольствия и миллиарды смотрят футбольные матчи на стадионах, в барах и дома. Любой мальчишка мечтает научиться финтам, которые выполняют кудесники мяча. Казалось бы, это практически нереально, ведь подобное искусство постигают годами, однако это не совсем так. Самое главное — грамотный учитель, который смог бы не только рассказать о том, как выполнять тот или иной трюк с мячом, но и показать это на практике. В книге вы сможете найти описание техник выполнения различных трюков с мячом, а видеоуроки на диске дадут возможность увидеть все своими глазами.-Качество: DVDRip
Формат: AVI
Видео кодек: XviD
Аудио кодек: AC3
Видео: 704x512 (1.38:1), 25 fps, XviD MPEG-4 ~1795 kbps avg, 0.20 bit/pixel
Аудио: 48 kHz, AC3 Dolby Digital, 2/0 (L,R) ch, ~192 kbps-

MediaInfo

Код: copyText_writeLink('this.parentNode.parentNode.nextSibling.nextSibling'); General
Complete name : E:\Обучение\Футбол уроки профессионала для начинающих.avi
Format : AVI
Format/Info : Audio Video Interleave
File size : 608 MiB
Duration : 42mn 32s
Overall bit rate : 1 998 Kbps
Writing application : FairUse Wizard - http://fairusewizard.com
Writing library : The best and REALLY easy backup tool
Video
ID : 0
Format : MPEG-4 Visual
Format profile : Advanced Simple@L5
Format settings, BVOP : 1
Format settings, QPel : No
Format settings, GMC : No warppoints
Format settings, Matrix : Default (MPEG)
Muxing mode : Packed bitstream
Codec ID : XVID
Codec ID/Hint : XviD
Duration : 42mn 32s
Bit rate : 1 796 Kbps
Width : 704 pixels
Height : 512 pixels
Display aspect ratio : 1.375
Frame rate : 25.000 fps
Color space : YUV
Chroma subsampling : 4:2:0
Bit depth : 8 bits
Scan type : Progressive
Compression mode : Lossy
Bits/(Pixel*Frame) : 0.199
Stream size : 546 MiB (90%)
Writing library : XviD 1.2.0.dev47 (UTC 2006-11-01)
Audio
ID : 1
Format : AC-3
Format/Info : Audio Coding 3
Mode extension : CM (complete main)
Format settings, Endianness : Big
Codec ID : 2000
Duration : 42mn 32s
Bit rate mode : Constant
Bit rate : 192 Kbps
Channel(s) : 2 channels
Channel positions : Front: L R
Sampling rate : 48.0 KHz
Bit depth : 16 bits
Compression mode : Lossy
Stream size : 58.4 MiB (10%)
Alignment : Split accross interleaves
Interleave, duration : 40 ms (1.00 video frame)
Interleave, preload duration : 500 ms
- -

_________________
Показать сообщения:    

Текущее время: Сегодня 10:02

Часовой пояс: GMT



Вы не можете начинать темы
Вы не можете отвечать на сообщения
Вы не можете редактировать свои сообщения
Вы не можете удалять свои сообщения
Вы не можете голосовать в опросах
Вы не можете прикреплять файлы к сообщениям
Вы не можете скачивать файлы