Важное объявление!
У Нас Все раздачи мультитрекерные, при нуле пиров в релизах, можете смело вставать на закачку!
 
Автор Сообщение

HUNTER

Стаж:
4 года 4 месяца
Сообщений:
56842

Репутация: 101

[+] [-]
Вне форума [Профиль] [ЛС]

Фронтовой кинооператор
Год выпуска: 1946
Страна: СССР
Жанр: документальный
Продолжительность: 00:21:24
Перевод: Не требуется
Режиссер: Владимир Сущинский, М. Е. Славинская
Описание: В годы великой Отечественной войны фронтовые кинооператоры запечатлели на плёнке бессмертный подвиг советского народа. Они сохранили для будущих поколений неповторимый образ нашей победы. Их было сто пятьдесят человек. Это фильм об одном из них - о Владимире Сущинском.
качество: SATRip
формат: AVI
Видео: DivX 5 640x480 25fps
Аудио: MP3 48000Hz stereo 128kbps

MediaInfo

General
Complete name : C:\Фронтовой кинооператор (1946).avi
Format : AVI
Format/Info : Audio Video Interleave
File size : 253 MiB
Duration : 21mn 24s
Overall bit rate : 1 654 Kbps
Writing application : Nandub v1.0rc2
Writing library : Nandub build 1853/release
Video
ID : 0
Format : MPEG-4 Visual
Format settings, BVOP : Yes
Format settings, QPel : No
Format settings, GMC : No warppoints
Format settings, Matrix : Default (H.263)
Codec ID : DX50
Codec ID/Hint : DivX 5
Duration : 21mn 24s
Bit rate : 1 516 Kbps
Width : 640 pixels
Height : 480 pixels
Display aspect ratio : 4:3
Frame rate : 25.000 fps
Color space : YUV
Chroma subsampling : 4:2:0
Bit depth : 8 bits
Scan type : Progressive
Compression mode : Lossy
Bits/(Pixel*Frame) : 0.197
Stream size : 232 MiB (92%)
Writing library : DivX 5.2.1 (WaffleDay) (UTC 2004-09-08)
Audio
ID : 1
Format : MPEG Audio
Format version : Version 1
Format profile : Layer 3
Mode : Joint stereo
Mode extension : MS Stereo
Codec ID : 55
Codec ID/Hint : MP3
Duration : 21mn 24s
Bit rate mode : Constant
Bit rate : 128 Kbps
Channel count : 2 channels
Sampling rate : 48.0 KHz
Compression mode : Lossy
Stream size : 19.6 MiB (8%)
Alignment : Split accross interleaves
Interleave, duration : 40 ms (1.00 video frame)
Interleave, preload duration : 500 ms

Скриншоты


_________________
Показать сообщения:    

Текущее время: Сегодня 19:29

Часовой пояс: GMT



Вы не можете начинать темы
Вы не можете отвечать на сообщения
Вы не можете редактировать свои сообщения
Вы не можете удалять свои сообщения
Вы не можете голосовать в опросах
Вы не можете прикреплять файлы к сообщениям
Вы не можете скачивать файлы
Наши партнеры: интернет магазин Ивановского трикотажа textilla.ru