Важное объявление!
У Нас Все раздачи мультитрекерные, при нуле пиров в релизах, можете смело вставать на закачку!
 
Автор Сообщение

HUNTER

Стаж:
4 года 4 месяца
Сообщений:
56809

Репутация: 101

[+] [-]
Вне форума [Профиль] [ЛС]

-Фронтера | Frontera-
Год выпуска: 2014
Страна: США
Студия: MJW Films, Ocean Blue Entertainment
Жанр: Драма, вестерн
Продолжительность: 01:42:56-Перевод: Профессиональный (многоголосый закадровый) | Официальный
Cубтитры: английские
Оригинальная аудиодорожка: английский-Режиссёр: Майкл Берри/Michael Berry-В ролях: Эд Харрис, Майкл Пенья, Ева Лонгория, Эми Мэдиган, Даниэль Сакапа, Кристен Рейкс, Мэттью Пейдж, Сет Эдкинс, Лора Каннингэм, Алекс Найт-Описание: Убита жена бывшего шерифа Аризоны. Все указывает на причастность к убийству мексиканца, нелегально въехавшего на территорию США. Муж убитой решает объединиться с действующим шерифом, чтобы докопаться до истины…- -| [url=http://rutracker.org/forum/tracker.php?nm=Фронтера%20%2F%20Frontera%20(Майкл%20Берри]Ссылка на предыдущие и альтернативные раздачи[/url]-Качество: BDRip 1080p
Формат: MKV
Видео: x264, ~ 11200 kbps, 1920x800 (16:9), 23,976 fps
Аудио 1: AC3, 48,0 КГц, 2 ch, 192 kbps - Rus
Аудио 2: DTS, 48,0 КГц, 6 ch, 1510 kbps- Eng
Субтитры: Английские-

MediaInfo

Код:
Общее
Уникальный идентификатор                 : 175535201065871484226647444068112064258 (0x840ED999C68E7363A9CB9A5DB788DF02)
Полное имя                               : D:\загрузки\Frontera.2014.P.Blu.Ray.1080p.mkv
Формат                                   : Matroska
Версия формата                           : Version 4 / Version 2
Размер файла                             : 9,51 Гбайт
Продолжительность                        : 1 ч. 42 м.
Общий поток                              : 13,2 Мбит/сек
Название фильма                          : Frontera.2014.P
Дата кодирования                         : UTC 2015-07-25 23:12:19
Программа кодирования                    : mkvmerge v7.3.0 ('Nouages') 32bit built on Oct 22 2014 18:44:01
Библиотека кодирования                   : libebml v1.3.0 + libmatroska v1.4.1
DURATION                                 : 01:42:56.470000000
NUMBER_OF_FRAMES                         : 579044
NUMBER_OF_BYTES                          : 1165036528
_STATISTICS_WRITING_APP                  : mkvmerge v7.3.0 ('Nouages') 32bit built on Oct 22 2014 18:44:01
_STATISTICS_WRITING_DATE_UTC             : 2015-07-25 23:12:19
_STATISTICS_TAGS                         : BPS DURATION NUMBER_OF_FRAMES NUMBER_OF_BYTES
Видео
Идентификатор                            : 1
Формат                                   : AVC
Формат/Информация                        : Advanced Video Codec
Профиль формата                          : High@L4.1
Параметр CABAC формата                   : Да
Параметр ReFrames формата                : 5 кадров
Идентификатор кодека                     : V_MPEG4/ISO/AVC
Продолжительность                        : 1 ч. 42 м.
Битрейт                                  : 11,3 Мбит/сек
Ширина                                   : 1920 пикселей
Высота                                   : 800 пикселей
Соотношение сторон                       : 2,40:1
Режим частоты кадров                     : Постоянный
Частота кадров                           : 23,976 кадра/сек
Цветовое пространство                    : YUV
Субдискретизация насыщенности            : 4:2:0
Битовая глубина                          : 8 бит
Тип развёртки                            : Прогрессивная
Бит/(Пиксели*Кадры)                      : 0.306
Размер потока                            : 8,09 Гбайт (85%)
Библиотека кодирования                   : x264 core 142 r2479kMod dd79a61
Настройки программы                      : cabac=1 / ref=5 / deblock=1:-3:-3 / analyse=0x3:0x133 / me=umh / subme=10 / psy=1 / fade_compensate=0.00 / psy_rd=1.04:0.00 / mixed_ref=1 / me_range=24 / chroma_me=1 / trellis=2 / 8x8dct=1 / cqm=0 / deadzone=21,11 / fast_pskip=1 / chroma_qp_offset=-2 / threads=12 / lookahead_threads=2 / sliced_threads=0 / nr=0 / decimate=1 / interlaced=0 / bluray_compat=0 / constrained_intra=0 / fgo=0 / bframes=9 / b_pyramid=2 / b_adapt=2 / b_bias=0 / direct=3 / weightb=1 / open_gop=0 / weightp=2 / keyint=230 / keyint_min=23 / scenecut=40 / intra_refresh=0 / rc_lookahead=40 / rc=crf / mbtree=0 / crf=15.8000 / qcomp=0.75 / qpmin=0 / qpmax=69 / qpstep=4 / vbv_maxrate=50000 / vbv_bufsize=62500 / crf_max=0.0 / nal_hrd=none / filler=0 / ip_ratio=1.30 / pb_ratio=1.20 / aq=2:0.85
Язык                                     : English
Default                                  : Да
Forced                                   : Нет
DURATION                                 : 01:42:56.462000000
NUMBER_OF_FRAMES                         : 148087
NUMBER_OF_BYTES                          : 8892297338
_STATISTICS_WRITING_APP                  : mkvmerge v7.3.0 ('Nouages') 32bit built on Oct 22 2014 18:44:01
_STATISTICS_WRITING_DATE_UTC             : 2015-07-25 23:12:19
_STATISTICS_TAGS                         : BPS DURATION NUMBER_OF_FRAMES NUMBER_OF_BYTES
Коэффициенты матрицы                     : BT.709
Аудио #1
Идентификатор                            : 4
Формат                                   : AC-3
Формат/Информация                        : Audio Coding 3
Расширение режима                        : CM (complete main)
Параметр Endianness формата              : Big
Идентификатор кодека                     : A_AC3
Продолжительность                        : 1 ч. 42 м.
Вид битрейта                             : Постоянный
Битрейт                                  : 192 Кбит/сек
Каналы                                   : 2 канала
Расположение каналов                     : Front: L R
Частота                                  : 48,0 КГц
Битовая глубина                          : 16 бит
Метод сжатия                             : С потерями
Размер потока                            : 141 Мбайт (1%)
Язык                                     : Russian
Default                                  : Да
Forced                                   : Нет
Аудио #2
Идентификатор                            : 5
Формат                                   : DTS
Формат/Информация                        : Digital Theater Systems
Режим                                    : 16
Параметр Endianness формата              : Big
Идентификатор кодека                     : A_DTS
Продолжительность                        : 1 ч. 42 м.
Вид битрейта                             : Постоянный
Битрейт                                  : 1509 Кбит/сек
Каналы                                   : 6 каналов
Расположение каналов                     : Front: L C R, Side: L R, LFE
Частота                                  : 48,0 КГц
Битовая глубина                          : 24 бит
Метод сжатия                             : С потерями
Размер потока                            : 1,09 Гбайт (11%)
Язык                                     : English
Default                                  : Нет
Forced                                   : Нет
Текст #1
Идентификатор                            : 2
Формат                                   : UTF-8
Идентификатор кодека                     : S_TEXT/UTF8
Идентификатор кодека/Информация          : UTF-8 Plain Text
Язык                                     : Russian
Default                                  : Да
Forced                                   : Да
Текст #2
Идентификатор                            : 3
Формат                                   : UTF-8
Идентификатор кодека                     : S_TEXT/UTF8
Идентификатор кодека/Информация          : UTF-8 Plain Text
Язык                                     : English
Default                                  : Нет
Forced                                   : Нет
Меню
00:00:00.000                             : en:00:00:00.000
00:08:11.241                             : en:00:08:11.241
00:16:32.617                             : en:00:16:32.617
00:25:46.754                             : en:00:25:46.754
00:33:47.442                             : en:00:33:47.442
00:42:36.929                             : en:00:42:36.929
00:51:47.980                             : en:00:51:47.980
01:00:33.338                             : en:01:00:33.338
01:07:36.261                             : en:01:07:36.261
01:16:15.196                             : en:01:16:15.196
01:24:11.797                             : en:01:24:11.797
01:37:24.756                             : en:01:37:24.756

Скриншоты


_________________
Показать сообщения:    

Текущее время: Сегодня 19:02

Часовой пояс: GMT



Вы не можете начинать темы
Вы не можете отвечать на сообщения
Вы не можете редактировать свои сообщения
Вы не можете удалять свои сообщения
Вы не можете голосовать в опросах
Вы не можете прикреплять файлы к сообщениям
Вы не можете скачивать файлы