Важное объявление!
У Нас Все раздачи мультитрекерные, при нуле пиров в релизах, можете смело вставать на закачку!
 
Автор Сообщение

HUNTER

Стаж:
4 года 4 месяца
Сообщений:
56842

Репутация: 101

[+] [-]
Вне форума [Профиль] [ЛС]

Фотограф / Fotograf
Страна: Польша
Студия: Kosmos Film
Жанр: триллер
Год выпуска: 2014
Продолжительность: 01:47:16
Перевод: Субтитры
Cубтитры: русские, польские, английские
Оригинальная аудиодорожка: польский
Режиссер: Вальдемар Кшистек / Waldemar Krzystek
В ролях: Татьяна Арнтгольц, Александр Балуев, Марат Башаров, Алексей Горбунов
Описание: Фотограф - это неуловимый серийный убийца, действующий в наши дни в Москве. Каждый раз он оставляет на месте преступления пронумерованные метки, аналогичные тем, что используют полицейские на месте преступления. Расследование приводит в старые бараки Красной армии в Легнице и к событиям, произошедшим там в 70-е годы..
Доп. информация: Диск из собственой коллекции.
Бонусы: Трейлеры.
Сэмпл: http://sendfile.su/1126714
Тип релиза: DVD9 (Custom)
Контейнер: DVD-Video
Видео: PAL 16:9 (720x576) VBR Auto Pan&Scan
Аудио: Polish (Dolby AC3, 448 Kbps, 6 ch)
Формат субтитров: prerendered (DVD/IDX+SUB)

DVDInfo

Size: 6.59 Gb ( 6 912 934 KBytes ) - DVD-9
Enabled regions: 1, 2, 3, 4, 5, 6, 7, 8
VTS_01 :
Play Length: 00:01:04
Video: PAL 16:9 (720x576) VBR, Auto Pan&Scan
Audio:
Polish (Dolby AC3, 2 ch)
VTS_02 :
Play Length: 01:47:16
Video: PAL 16:9 (720x576) VBR, Auto Pan&Scan
Audio:
Polish (Dolby AC3, 6 ch)
Subtitles:
Russian
Polish
English
VTS_03 :
Play Length: 00:01:04
Video: PAL 16:9 (720x576) VBR, Auto Pan&Scan
Audio:
Polish (Dolby AC3, 2 ch)
VTS_04 :
Play Length: 00:02:13
Video: PAL 16:9 (720x576) VBR, Auto Pan&Scan
Audio:
English (Dolby AC3, 2 ch)
VTS_05 :
Play Length: 00:02:09
Video: PAL 16:9 (720x576) VBR, Auto Pan&Scan
Audio:
Polish (Dolby AC3, 2 ch)
VTS_06 :
Play Length: 00:02:14
Video: PAL 16:9 (720x576) VBR, Auto Pan&Scan
Audio:
English (Dolby AC3, 2 ch)
VTS_07 :
Play Length: 00:02:14
Video: PAL 16:9 (720x576) VBR, Auto Pan&Scan
Audio:
Polish (Dolby AC3, 2 ch)
VTS_08 :
Play Length: 00:02:14
Video: PAL 16:9 (720x576) VBR, Auto Pan&Scan
Audio:
English (Dolby AC3, 2 ch)
VTS_09 :
Play Length: 00:02:26
Video: PAL 16:9 (720x576) VBR, Auto Pan&Scan
Audio:
English (Dolby AC3, 2 ch)
Menu Video:
PAL 16:9 (720x576) VBR
Auto Pan&Scan
Menu Polish Language Unit :
Root Menu
Subpicture Menu
Audio Menu

MediaInfo

General
Complete name : F:\Fotograf_2014\VIDEO_TS\VTS_02_1.VOB
Format : MPEG-PS
File size : 1 024 MiB
Duration : 19mn 5s
Overall bit rate mode : Variable
Overall bit rate : 7 502 Kbps
Video
ID : 224 (0xE0)
Format : MPEG Video
Format version : Version 2
Format profile : Main@Main
Format settings, BVOP : Yes
Format settings, Matrix : Custom
Format settings, GOP : M=2, N=12
Duration : 19mn 5s
Bit rate mode : Variable
Bit rate : 6 905 Kbps
Maximum bit rate : 8 500 Kbps
Width : 720 pixels
Height : 576 pixels
Display aspect ratio : 16:9
Frame rate : 25.000 fps
Standard : PAL
Color space : YUV
Chroma subsampling : 4:2:0
Bit depth : 8 bits
Scan type : Progressive
Scan order : Bottom Field First
Compression mode : Lossy
Bits/(Pixel*Frame) : 0.666
Stream size : 942 MiB (92%)
Color primaries : BT.709
Transfer characteristics : BT.709
Matrix coefficients : BT.709
Audio
ID : 189 (0xBD)-128 (0x80)
Format : AC-3
Format/Info : Audio Coding 3
Mode extension : CM (complete main)
Format settings, Endianness : Big
Muxing mode : DVD-Video
Duration : 19mn 4s
Bit rate mode : Constant
Bit rate : 448 Kbps
Channel(s) : 6 channels
Channel positions : Front: L C R, Side: L R, LFE
Sampling rate : 48.0 KHz
Bit depth : 16 bits
Compression mode : Lossy
Stream size : 61.1 MiB (6%)
Text #1
ID : 189 (0xBD)-33 (0x21)
Format : RLE
Format/Info : Run-length encoding
Muxing mode : DVD-Video
Text #2
ID : 189 (0xBD)-34 (0x22)
Format : RLE
Format/Info : Run-length encoding
Muxing mode : DVD-Video
Menu

Скриншоты меню


_________________
Показать сообщения:    

Текущее время: Сегодня 15:15

Часовой пояс: GMT



Вы не можете начинать темы
Вы не можете отвечать на сообщения
Вы не можете редактировать свои сообщения
Вы не можете удалять свои сообщения
Вы не можете голосовать в опросах
Вы не можете прикреплять файлы к сообщениям
Вы не можете скачивать файлы