Важное объявление!
У Нас Все раздачи мультитрекерные, при нуле пиров в релизах, можете смело вставать на закачку!
 
Автор Сообщение

HUNTER

Стаж:
4 года 4 месяца
Сообщений:
56733

Репутация: 101

[+] [-]
Вне форума [Профиль] [ЛС]

-Форсаж 7 / Furious Seven / Furious 7 [Extended Cut]«Месть не знает границ»
Страна: США
Студия: China Film Co., Dentsu, Fast 7 Productions, Media Rights Capital, One Race Films, Original Film, Universal Pictures
Жанр: боевик, триллер, криминал
Год выпуска: 2015
Продолжительность: 02:19:54-Перевод 1: Профессиональный (полное дублирование) BD EUR
Перевод 2: Одноголосый (закадровый) А. Матвеев aka Doctor_Joker
Оригинальная аудиодорожка: английская
Cубтитры: русские, украинские, английские
Режиссер: Джеймс Ван / James Wan
В ролях: Вин Дизель, Пол Уокер, Джейсон Стэйтем, Мишель Родригес, Дуэйн Джонсон, Тайриз Гибсон, Лудакрис, Натали Эммануэль, Джордана Брюстер, Курт Рассел
Описание: Они покорили Токио и Рио, Лос-Анджелес и Лондон. Но мир больше не играет по их правилам. Зной арабских пустынь, неприлично высокие небоскребы, миллионы долларов на колесах и очень, очень знаменитый злодей. Скорость не знает границ.-
Сэмпл: скачать-Релиз от -
Автор рипа: Elheym
Качество: BDRip 1080p (источник: / Blu-ray EUR [FASTFURIOUS7_HDCLUB] / 1080p)
Контейнер: MKV
Видео: 1920x800 (2.40:1), 23.976 fps, MPEG-4 AVC, ~14200 kbps avg, 0.386 bit/pixel
Аудио #1: Русский: AC3, 5.1, 48 kHz, ~448 Кбит/с | Профессиональный (полное дублирование) BD EUR |
Аудио #2: Русский: DTS, 5.1, 48 kHz, ~1509 Кбит/с | Одноголосый (закадровый) А. Матвеев aka Doctor_Joker |
Аудио #3: Английский: DTS, 5.1, 48 kHz, ~1509 Кбит/с | Оригинал |
Субтитры: русские (полные: BD, Матвеев; форсированные), украинские (полные), английские (полные, SDH, SDH цветные)
Главы: Присутствуют, сохранены оригинальные

MediaInfo

Уникальный идентификатор : 248509999417674789347957283139250897284 (0xBAF548F18DB8C874A88E20A60A314184)
Полное имя : Furious.7.Extended.Cut.2015.1080p.BluRay.2xRus.Eng.-HQCLUB.mkv
Формат : Matroska
Версия формата : Version 2
Размер файла : 17,3 Гбайт
Продолжительность : 2 ч. 19 м.
Общий поток : 17,7 Мбит/сек
Название фильма : Форсаж 7 / Furious 7 [Extended Cut] (2015) BDRip 1080p by Elheym [HQCLUB]
Дата кодирования : UTC 2015-08-03 13:17:23
Программа кодирования : mkvmerge v5.2.0 ('I can't explain') built on Dec 18 2011 18:12:03
Библиотека кодирования : libebml v1.2.3 + libmatroska v1.3.0
Attachements : Cover.jpg
Видео
Идентификатор : 1
Формат : AVC
Формат/Информация : Advanced Video Codec
Профиль формата : High@L4.1
Параметр CABAC формата : Да
Параметр ReFrames формата : 5 кадров
Идентификатор кодека : V_MPEG4/ISO/AVC
Продолжительность : 2 ч. 19 м.
Битрейт : 14,2 Мбит/сек
Ширина : 1920 пикселей
Высота : 800 пикселей
Соотношение сторон : 2,40:1
Режим частоты кадров : Постоянный
Частота кадров : 23,976 кадра/сек
Цветовое пространство : YUV
Субдискретизация насыщенности : 4:2:0
Битовая глубина : 8 бит
Тип развёртки : Прогрессивная
Бит/(Пиксели*Кадры) : 0.386
Размер потока : 13,5 Гбайт (78%)
Заголовок : Форсаж 7 / Furious 7 [Extended Cut] (2015) BDRip 1080p by Elheym [HQCLUB]
Библиотека кодирования : x264 core 146 r0+2586 e393126 t_mod_Custom [8-bit@all X86_64]
Настройки программы : cabac=1 / ref=5 / deblock=1:-3:-2 / analyse=0x3:0x113 / me=umh / subme=11 / psy=1 / fade_compensate=0.00 / psy_rd=1.10:0.20 / mixed_ref=1 / me_range=32 / chroma_me=1 / trellis=2 / 8x8dct=1 / cqm=0 / deadzone=21,11 / fast_pskip=0 / chroma_qp_offset=-3 / threads=6 / lookahead_threads=2 / sliced_threads=0 / nr=0 / decimate=0 / interlaced=0 / bluray_compat=0 / constrained_intra=0 / fgo=0 / bframes=9 / b_pyramid=2 / b_adapt=2 / b_bias=0 / direct=3 / weightb=1 / open_gop=0 / weightp=2 / keyint=240 / keyint_min=23 / scenecut=40 / intra_refresh=0 / rc_lookahead=120 / rc=2pass / mbtree=0 / bitrate=14200 / ratetol=1.0 / qcomp=0.80 / qpmin=0:0:0 / qpmax=69:69:69 / qpstep=4 / cplxblur=20.0 / qblur=0.5 / vbv_maxrate=50000 / vbv_bufsize=62500 / nal_hrd=none / filler=0 / ip_ratio=1.40 / pb_ratio=1.30 / aq=2:0.60 / aq-sensitivity=14.00 / aq-factor=1.00:1.00:1.00 / aq2=0 / aq3=0 / zones=154009,158953,b=1.16/167714,171887,b=1.14/189050,201274,b=0.2
Язык : English
Default : Да
Forced : Нет
Аудио #1
Идентификатор : 2
Формат : AC-3
Формат/Информация : Audio Coding 3
Расширение режима : CM (complete main)
Параметр Endianness формата : Big
Идентификатор кодека : A_AC3
Продолжительность : 2 ч. 19 м.
Вид битрейта : Постоянный
Битрейт : 448 Кбит/сек
Каналы : 6 каналов
Расположение каналов : Front: L C R, Side: L R, LFE
Частота : 48,0 КГц
Метод сжатия : С потерями
Размер потока : 448 Мбайт (3%)
Заголовок : АС3 5.1 @ 448 kbps - Dub, BD EUR
Язык : Russian
Default : Нет
Forced : Нет
Аудио #2
Идентификатор : 3
Формат : DTS
Формат/Информация : Digital Theater Systems
Режим : 16
Параметр Endianness формата : Big
Идентификатор кодека : A_DTS
Продолжительность : 2 ч. 19 м.
Вид битрейта : Постоянный
Битрейт : 1509 Кбит/сек
Каналы : 6 каналов
Расположение каналов : Front: L C R, Side: L R, LFE
Частота : 48,0 КГц
Битовая глубина : 24 бит
Метод сжатия : С потерями
Размер потока : 1,47 Гбайт (9%)
Заголовок : DTS 5.1 @ 1509 kbps - VO, Matveev
Язык : Russian
Default : Нет
Forced : Нет
Аудио #3
Идентификатор : 4
Формат : DTS
Формат/Информация : Digital Theater Systems
Режим : 16
Параметр Endianness формата : Big
Идентификатор кодека : A_DTS
Продолжительность : 2 ч. 19 м.
Вид битрейта : Постоянный
Битрейт : 1509 Кбит/сек
Каналы : 6 каналов
Расположение каналов : Front: L C R, Side: L R, LFE
Частота : 48,0 КГц
Битовая глубина : 24 бит
Метод сжатия : С потерями
Размер потока : 1,47 Гбайт (9%)
Заголовок : DTS 5.1 @ 1509 kbps - Original
Язык : English
Default : Нет
Forced : Нет
Текст #1
Идентификатор : 5
Формат : UTF-8
Идентификатор кодека : S_TEXT/UTF8
Идентификатор кодека/Информация : UTF-8 Plain Text
Заголовок : Full, BD
Язык : Russian
Default : Нет
Forced : Нет
Текст #2
Идентификатор : 6
Формат : UTF-8
Идентификатор кодека : S_TEXT/UTF8
Идентификатор кодека/Информация : UTF-8 Plain Text
Заголовок : Full, Matveev
Язык : Russian
Default : Нет
Forced : Нет
Текст #3
Идентификатор : 7
Формат : UTF-8
Идентификатор кодека : S_TEXT/UTF8
Идентификатор кодека/Информация : UTF-8 Plain Text
Заголовок : Forced
Язык : Russian
Default : Да
Forced : Нет
Текст #4
Идентификатор : 8
Формат : UTF-8
Идентификатор кодека : S_TEXT/UTF8
Идентификатор кодека/Информация : UTF-8 Plain Text
Заголовок : Full
Язык : Ukrainian
Default : Нет
Forced : Нет
Текст #5
Идентификатор : 9
Формат : UTF-8
Идентификатор кодека : S_TEXT/UTF8
Идентификатор кодека/Информация : UTF-8 Plain Text
Заголовок : Full
Язык : English
Default : Нет
Forced : Нет
Текст #6
Идентификатор : 10
Формат : UTF-8
Идентификатор кодека : S_TEXT/UTF8
Идентификатор кодека/Информация : UTF-8 Plain Text
Заголовок : SDH
Язык : English
Default : Нет
Forced : Нет
Текст #7
Идентификатор : 11
Формат : UTF-8
Идентификатор кодека : S_TEXT/UTF8
Идентификатор кодека/Информация : UTF-8 Plain Text
Заголовок : SDH, Colored
Язык : English
Default : Нет
Forced : Нет
Меню
00:00:00.000 : :Chapter 01
00:04:39.946 : :Chapter 02
00:11:29.480 : :Chapter 03
00:16:39.288 : :Chapter 04
00:25:54.051 : :Chapter 05
00:33:43.895 : :Chapter 06
00:41:44.585 : :Chapter 07
00:46:41.005 : :Chapter 08
00:52:10.710 : :Chapter 09
01:02:31.414 : :Chapter 10
01:06:16.679 : :Chapter 11
01:14:16.868 : :Chapter 12
01:22:34.032 : :Chapter 13
01:33:21.136 : :Chapter 14
01:38:27.484 : :Chapter 15
01:45:40.082 : :Chapter 16
01:53:54.452 : :Chapter 17
01:58:31.061 : :Chapter 18
02:06:19.863 : :Chapter 19
02:11:31.173 : :Chapter 20
02:19:54.593 : :Chapter 21

x264 log

x264 [info]: frame I:1776 Avg QP:14.31 size:240131
x264 [info]: frame P:65322 Avg QP:16.66 size:111112
x264 [info]: frame B:134177 Avg QP:18.38 size: 53724
x264 [info]: consecutive B-frames: 9.6% 8.3% 24.5% 17.9% 13.5% 23.0% 1.8% 0.9% 0.2% 0.3%
x264 [info]: ref P L0: 53.0% 10.5% 22.1% 6.7% 6.0% 1.7% 0.0%
x264 [info]: ref B L0: 80.7% 14.7% 3.6% 1.1%
x264 [info]: ref B L1: 93.8% 6.2%

Скриншоты

Сравнения с исходником

Источник- -Рип-
Цитата:
Цитата:

Перевод Алексея Матвеева доступен благодаря: napaHouk. Работа со звуком: Переводман. Ненормативной лексики в фильме нет. Шуток очень много, одну пришлось заменить - "No Knees" Denise (женщина, так часто встающая на колени, что их стёрла) стала "Карлой Даваллой". В остальном - всё просто и понятно. В финальном посвящении Уокеру фразы прошлых частей брал из своих переводов. На этом всё.

_________________
Показать сообщения:    

Текущее время: Сегодня 03:37

Часовой пояс: GMT



Вы не можете начинать темы
Вы не можете отвечать на сообщения
Вы не можете редактировать свои сообщения
Вы не можете удалять свои сообщения
Вы не можете голосовать в опросах
Вы не можете прикреплять файлы к сообщениям
Вы не можете скачивать файлы