Важное объявление!
У Нас Все раздачи мультитрекерные, при нуле пиров в релизах, можете смело вставать на закачку!
 
Автор Сообщение

HUNTER

Стаж:
4 года 4 месяца
Сообщений:
56809

Репутация: 101

[+] [-]
Вне форума [Профиль] [ЛС]

Форсаж 7 / Furious 7 / Extended Cut
Страна: США
Студия: Dentsu, Fast 7 Productions, One Race Films, Original Film, Universal Pictures
Жанр: боевик, триллер, криминал
Год выпуска: 2015
Продолжительность: 02:19:55
Перевод 1: Профессиональный (дублированный) Blu-ray CEE
Перевод 2: Одноголосый (закадровый) Матвеев
Cубтитры: русские (forsed, BD, full-Матвеев), украинские, английские (full, SDH, SDH-Colored)
Оригинальная аудиодорожка: английский
Режиссер: Джеймс Ван / James Wan
В ролях: Вин Дизель, Пол Уокер, Дуэйн Джонсон, Джейсон Стэйтем, Мишель Родригес, Джордана Брюстер, Тайриз Гибсон, Лудакрис, Эльза Патаки, Лукас Блэк
Описание: Они покорили Токио и Рио, Лос-Анджелес и Лондон. Но мир больше не играет по их правилам. Зной арабских пустынь, неприлично высокие небоскребы, миллионы долларов на колесах и очень, очень знаменитый злодей. Скорость не знает границ.

Тип релиза: BDRip 720p [VietHD]
Контейнер: MKV
Видео: AVC, 1280x534, 7418 kbps, 23.976 fps
Аудио 1: Russian: 48 kHz, AC3, 3/2 (L,C,R,l,r) + LFE ch, ~448.00 kbps avg |Blu-ray CEE |
Аудио 2: Russian: 48 kHz, AC3, 3/2 (L,C,R,l,r) + LFE ch, ~640.00 kbps avg |Матвеев|
Аудио 3: English: 48 kHz, AC3, 3/2 (L,C,R,l,r) + LFE ch, ~640.00 kbps |Original|
Чаптеры: есть

x264 log

x264 [info]: frame I:2064 Avg QP:14.55 size:116246
x264 [info]: frame P:59353 Avg QP:15.71 size: 61023
x264 [info]: frame B:139858 Avg QP:16.94 size: 29375
x264 [info]: consecutive B-frames: 7.9% 7.2% 15.2% 24.6% 14.5% 25.4% 3.3% 1.0% 0.9%

Доп.информация

За блюрей спасибо:hdclub
Перевод Алексея Матвеева доступен благодаря: napaHouk. Работа со звуком: Переводман
За сабы спасибо:Матвеев

MediaInfo

General
Unique ID : 215283259406941046564797909519801752512 (0xA1F60C2E50A5DA328EC4106358BF9BC0)
Complete name : D:\рипы\Furious.Seven.2015.Extended.720p.BluRay.DD5.1.x264-Talian-.mkv
Format : Matroska
Format version : Version 2
File size : 9.11 GiB
Duration : 2h 19mn
Overall bit rate : 9 327 Kbps
Movie name : Furious 7-Talian-
Encoded date : UTC 2015-08-03 08:53:56
Writing application : mkvmerge v5.7.0 ('The Whirlwind') built on Jul 8 2012 20:08:51
Writing library : libebml v1.2.3 + libmatroska v1.3.0
Attachment : Yes
Video
ID : 1
Format : AVC
Format/Info : Advanced Video Codec
Format profile : High@L4.1
Format settings, CABAC : Yes
Format settings, ReFrames : 12 frames
Codec ID : V_MPEG4/ISO/AVC
Duration : 2h 19mn
Bit rate : 7 413 Kbps
Width : 1 280 pixels
Height : 534 pixels
Display aspect ratio : 2.40:1
Frame rate : 23.976 fps
Color space : YUV
Chroma subsampling : 4:2:0
Bit depth : 8 bits
Scan type : Progressive
Bits/(Pixel*Frame) : 0.452
Stream size : 7.24 GiB (79%)
Title : VietHD
Writing library : x264 core 142 r2431+42 c69a006 tMod [8-bit@all X86_64]
Encoding settings : cabac=1 / ref=12 / deblock=1:-3:-3 / analyse=0x3:0x133 / me=tesa / subme=11 / psy=1 / fade_compensate=0.00 / psy_rd=1.05:0.00 / mixed_ref=1 / me_range=32 / chroma_me=1 / trellis=2 / 8x8dct=1 / cqm=0 / deadzone=21,11 / fast_pskip=0 / chroma_qp_offset=-2 / threads=12 / lookahead_threads=2 / sliced_threads=0 / nr=0 / decimate=0 / interlaced=0 / bluray_compat=0 / constrained_intra=0 / fgo=0 / bframes=8 / b_pyramid=2 / b_adapt=2 / b_bias=0 / direct=3 / weightb=1 / open_gop=0 / weightp=2 / keyint=250 / keyint_min=23 / scenecut=40 / intra_refresh=0 / rc_lookahead=60 / rc=crf / mbtree=0 / crf=16.5000 / qcomp=0.70 / qpmin=0:0:0 / qpmax=69:69:69 / qpstep=4 / vbv_maxrate=62500 / vbv_bufsize=78125 / crf_max=0.0 / nal_hrd=none / filler=0 / ip_ratio=1.24 / pb_ratio=1.18 / aq=1:0.80 / aq-sensitivity=10.00 / aq-factor=1.00:1.00:1.00 / aq2=0 / aq3=0 / zones=26,588,crf=15/1500,5330,crf=15/8884,9219,crf=15/9754,9834,crf=15/11740,11750,crf=15/13618,16530,crf=15/20829,22988,crf=15/23025,23093,crf=14/23600,23956,crf=15/27115,27149,crf=14/35597,37259,crf=15/43911,43957,crf=15/44278,44343,crf=15/44409,44452,crf=15/44707,44791,crf=15/45029,49532,crf=15/58779,58813,crf=14/60061,62754,crf=15/62755,62837,crf=14/63353,63354,crf=14/63483,63624,crf=15/64644,64663,crf=15/64728,64763,crf=15/64971,64985,crf=15/66976,67030,crf=15/68613,71011,crf=15/71012,71032,crf=14/71033,71199,crf=15/71200,71206,crf=14/71207,72022,crf=15/72023,72043,crf=14/72044,73430,crf=15/73431,73435,crf=14/73436,73454,crf=15/73455,73463,crf=14/73464,75939,crf=15/75940,75949,crf=14/75950,77459,crf=15/77460,77475,crf=14/77476,80010,crf=15/80011,80020,crf=14/80021,89428,crf=15/93581,95344,crf=15/101589,101780,crf=14/105338,105371,crf=15/106920,107231,crf=15/108070,108148,crf=14/108248,108281,crf=15/108559,108656,crf=15/108913,108973,crf=14/109801,110160,crf=15/110348,110367,crf=14/110683,110686,crf=15/110776,111996,crf=15/112097,112200,crf=15/112708,112819,crf=15/113201,113418,crf=14/114669,114684,crf=15/115052,115116,crf=15/115140,115587,crf=15/115588,115604,crf=14/115605,118777,crf=15/124386,124471,crf=15/127302,130575,crf=14.5/140682,140733,crf=15/141638,152009,crf=15/152250,152620,crf=15/152735,161614,crf=15/161799,161810,crf=15/162273,162290,crf=15/162304,162318,crf=15/162355,162387,crf=15/162412,162443,crf=15/162498,162506,crf=15/162703,162728,crf=15/162729,163862,crf=15/164125,164188,crf=15/164286,164300,crf=15/164346,164600,crf=15/164649,164684,crf=15/164702,164780,crf=15/164846,164883,crf=15/164902,164930,crf=15/165021,165030,crf=15/166750,167010,crf=15/168719,168767,crf=15/169585,169601,crf=15/169702,169725,crf=15/170418,170459,crf=15/170495,170627,crf=15/170912,171062,crf=15/171089,171141,crf=15/171542,171599,crf=15/172013,172028,crf=15/171960,172028,crf=15/172850,172987,crf=15/173108,173122,crf=15/173456,173514,crf=15/173607,173637,crf=15/173649,173669,crf=15/173870,173950,crf=15/174739,174752,crf=15/175235,181688,crf=15/181689,181782,crf=21/181783,185743,crf=17/186541,186548,crf=15/186767,186835,crf=15/186888,186945,crf=15/187008,187018,crf=15/187229,187247,crf=15/187529,187532,crf=15/188060,189028,crf=17/189036,189059,crf=15/189060,201274,crf=21
Language : English
Default : Yes
Forced : No
Matrix coefficients : BT.709-5, BT.1361, IEC 61966-2-4 709, SMPTE RP177
Audio #1
ID : 2
Format : AC-3
Format/Info : Audio Coding 3
Mode extension : CM (complete main)
Format settings, Endianness : Big
Codec ID : A_AC3
Duration : 2h 19mn
Bit rate mode : Constant
Bit rate : 448 Kbps
Channel(s) : 6 channels
Channel positions : Front: L C R, Side: L R, LFE
Sampling rate : 48.0 KHz
Bit depth : 16 bits
Compression mode : Lossy
Stream size : 448 MiB (5%)
Title : DUB-Blu-ray CEE
Language : Russian
Default : Yes
Forced : No
Audio #2
ID : 3
Format : AC-3
Format/Info : Audio Coding 3
Mode extension : CM (complete main)
Format settings, Endianness : Big
Codec ID : A_AC3
Duration : 2h 19mn
Bit rate mode : Constant
Bit rate : 640 Kbps
Channel(s) : 6 channels
Channel positions : Front: L C R, Side: L R, LFE
Sampling rate : 48.0 KHz
Bit depth : 16 bits
Compression mode : Lossy
Stream size : 640 MiB (7%)
Title : VO-Матвеев
Language : Russian
Default : No
Forced : No
Audio #3
ID : 4
Format : AC-3
Format/Info : Audio Coding 3
Mode extension : CM (complete main)
Format settings, Endianness : Big
Codec ID : A_AC3
Duration : 2h 19mn
Bit rate mode : Constant
Bit rate : 640 Kbps
Channel(s) : 6 channels
Channel positions : Front: L C R, Side: L R, LFE
Sampling rate : 48.0 KHz
Bit depth : 16 bits
Compression mode : Lossy
Stream size : 640 MiB (7%)
Title : Original
Language : English
Default : No
Forced : No
Text #1
ID : 5
Format : UTF-8
Codec ID : S_TEXT/UTF8
Codec ID/Info : UTF-8 Plain Text
Title : Sub-forced
Language : Russian
Default : Yes
Forced : No
Text #2
ID : 6
Format : UTF-8
Codec ID : S_TEXT/UTF8
Codec ID/Info : UTF-8 Plain Text
Title : Sub-BD
Language : Russian
Default : No
Forced : No
Text #3
ID : 7
Format : UTF-8
Codec ID : S_TEXT/UTF8
Codec ID/Info : UTF-8 Plain Text
Title : Sub-Матвеев
Language : Russian
Default : No
Forced : No
Text #4
ID : 8
Format : UTF-8
Codec ID : S_TEXT/UTF8
Codec ID/Info : UTF-8 Plain Text
Title : Sub-full
Language : Ukrainian
Default : No
Forced : No
Text #5
ID : 9
Format : UTF-8
Codec ID : S_TEXT/UTF8
Codec ID/Info : UTF-8 Plain Text
Title : Sub-full
Language : English
Default : No
Forced : No
Text #6
ID : 10
Format : UTF-8
Codec ID : S_TEXT/UTF8
Codec ID/Info : UTF-8 Plain Text
Title : Sub-SDH
Language : English
Default : No
Forced : No
Text #7
ID : 11
Format : UTF-8
Codec ID : S_TEXT/UTF8
Codec ID/Info : UTF-8 Plain Text
Title : Sub-SDH-Colored
Language : English
Default : No
Forced : No
Menu
00:00:00.000 : en:00:00:00.000
00:04:39.946 : en:00:04:39.946
00:11:29.480 : en:00:11:29.480
00:16:39.290 : en:00:16:39.290
00:25:54.052 : en:00:25:54.052
00:33:43.897 : en:00:33:43.897
00:41:44.585 : en:00:41:44.585
00:46:41.006 : en:00:46:41.006
00:52:10.711 : en:00:52:10.711
01:02:31.414 : en:01:02:31.414
01:06:16.681 : en:01:06:16.681
01:14:16.869 : en:01:14:16.869
01:22:34.032 : en:01:22:34.032
01:33:21.137 : en:01:33:21.137
01:38:27.485 : en:01:38:27.485
01:45:40.084 : en:01:45:40.084
01:53:54.452 : en:01:53:54.452
01:58:31.062 : en:01:58:31.062
02:06:19.864 : en:02:06:19.864
02:11:31.175 : en:02:11:31.175

Скриншоты

Source vs Encode



_________________
Показать сообщения:    

Текущее время: Сегодня 18:08

Часовой пояс: GMT



Вы не можете начинать темы
Вы не можете отвечать на сообщения
Вы не можете редактировать свои сообщения
Вы не можете удалять свои сообщения
Вы не можете голосовать в опросах
Вы не можете прикреплять файлы к сообщениям
Вы не можете скачивать файлы