Важное объявление!
У Нас Все раздачи мультитрекерные, при нуле пиров в релизах, можете смело вставать на закачку!
 
Автор Сообщение

HUNTER

Стаж:
4 года 4 месяца
Сообщений:
56822

Репутация: 101

[+] [-]
Вне форума [Профиль] [ЛС]

Формула 51 / The 51st State«In a world of shady characters and dirty deals, this is just business as usual»

Год выпуска: 2001
Страна: Великобритания, Канада
Жанр: Боевик, комедия, криминал
Продолжительность: 01:28:35
Перевод №1: Профессиональный (дублированный)[ИнтерФильм]с VHS
Перевод №2: Авторский (одноголосный, закадровый)[А.Гаврилов]
Режиссер: Ронни Ю / Ronny Yu
В ролях: Сэмюэл Л. Джексон, Найджел Уитми, Роберт Йезек, Эмили Мортимер, Мит Лоуф, Роберт Карлайл, Джэйк Абрахам, Мак МакДональд, Аарон Шварц, Дэвид Веббер
Описание: Химик-фармацевт МакЭлрой изобрел новый супернаркотик и решил сорвать большой куш. Чтобы осуществить задуманное он отправляется в Ливерпуль. Его босс Ящер приказывает своей помощнице Дакоте убить МакЭлроя.
Дакота хорошо знает Ливерпуль — родной город ее бывшего бойфренда Феликса ДеСоуза, невольного партнера МакЭлроя. А Ливерпуль уже «стоит на ушах». И хозяин ночного клуба Айки, и офицер полиции Кэйн, и мелкие гангстеры, и скинхеды — все хотят отщипнуть кусочек от бизнеса с чудо-наркотиком. А тем временем МакЭлрой и Феликс упорно ищут покупателя, готового отстегнуть им 20 миллионов. Но не предаст ли МакЭлроя Феликс?
Все станет известно на главном футбольном матче года. Мы узнаем, кто кого подставил. Кому достался наркотик. Кого разорвало на миллионы кусочков. И кто сбежал в шотландский замок стоимостью в милионы долларов..


Качество: DVDRip
Формат: AVI
Видео кодек: XviD
Аудио кодек: AC3
Видео: 720x304 (2.37:1), 25 fps, XviD MPEG-4 ~1484 kbps avg, 0.27 bit/pixel
Аудио №1: 44.100 kHz, AC3 Dolby Digital, 2/0 (L,R) ch, ~192.00 kbps avg
Аудио №2: 48 kHz, AC3 Dolby Digital, 2/0 (L,R) ch, ~192.00 kbps avg

Благодарности:

За исходник раритетной дорожки дубляжа ИнтерФильм(Мосфильм Мастер по заказу Екатеринбург Арт) благодарю Home Video с тру!
Цитата:
Раритет, ибо нормальной записи дубляжа увы, НЕТУ! В релизах убитый фильтрами МОНО-звук. У меня же прямая запись с VHS на Комп еще в нулевых годах, да еще в Стерео-варианте, когда кассета только была взята на прокат из магазина.

Рейтинги:

MediaInfo

E:\INTERNET\The 51st State.2002.DVDRip.[DUB InterFilm]+[AVO Gavrilov].avi
General
Complete name : E:\INTERNET\The 51st State.2002.DVDRip.[DUB InterFilm]+[AVO Gavrilov].avi
Format : AVI
Format/Info : Audio Video Interleave
File size : 1.20 GiB
Duration : 1h 28mn
Overall bit rate : 1 934 Kbps
Writing application : VirtualDubMod 1.5.10.3 (build 2550/release)
Writing library : VirtualDubMod build 2550/release
Video #0
ID : 0
Format : MPEG-4 Visual
Format profile : Simple@L1
Format settings, BVOP : No
Format settings, QPel : No
Format settings, GMC : No warppoints
Format settings, Matrix : Default (H.263)
Codec ID : XVID
Codec ID/Hint : XviD
Duration : 1h 28mn
Bit rate : 1 535 Kbps
Width : 720 pixels
Height : 304 pixels
Display aspect ratio : 2.35:1
Frame rate : 25.000 fps
Color space : YUV
Chroma subsampling : 4:2:0
Bit depth : 8 bits
Scan type : Progressive
Compression mode : Lossy
Bits/(Pixel*Frame) : 0.281
Stream size : 973 MiB (79%)
Writing library : Lavc51.60.0
Audio #1
ID : 1
Format : AC-3
Format/Info : Audio Coding 3
Mode extension : CM (complete main)
Format settings, Endianness : Big
Codec ID : 2000
Duration : 1h 28mn
Bit rate mode : Constant
Bit rate : 192 Kbps
Channel(s) : 2 channels
Channel positions : Front: L R
Sampling rate : 44.1 KHz
Bit depth : 16 bits
Compression mode : Lossy
Delay relative to video : 4s 600ms
Stream size : 122 MiB (10%)
Alignment : Split accross interleaves
Interleave, duration : 40 ms (1.00 video frame)
Interleave, preload duration : 500 ms
Audio #2
ID : 2
Format : AC-3
Format/Info : Audio Coding 3
Mode extension : CM (complete main)
Format settings, Endianness : Big
Codec ID : 2000
Duration : 1h 28mn
Bit rate mode : Constant
Bit rate : 192 Kbps
Channel(s) : 2 channels
Channel positions : Front: L R
Sampling rate : 48.0 KHz
Bit depth : 16 bits
Compression mode : Lossy
Stream size : 122 MiB (10%)
Alignment : Split accross interleaves
Interleave, duration : 40 ms (1.00 video frame)
Interleave, preload duration : 500 ms

Скриншоты


_________________
Показать сообщения:    

Текущее время: Сегодня 21:55

Часовой пояс: GMT



Вы не можете начинать темы
Вы не можете отвечать на сообщения
Вы не можете редактировать свои сообщения
Вы не можете удалять свои сообщения
Вы не можете голосовать в опросах
Вы не можете прикреплять файлы к сообщениям
Вы не можете скачивать файлы