Важное объявление!
У Нас Все раздачи мультитрекерные, при нуле пиров в релизах, можете смело вставать на закачку!
 
Автор Сообщение

HUNTER

Стаж:
4 года 4 месяца
Сообщений:
56783

Репутация: 101

[+] [-]
Вне форума [Профиль] [ЛС]

Формула 1. Сезон 2014. Этап 14. Гран-при Сингапура. Гонка. Onboard. Feed
Вид спорта: Формула 1
Дата/Год выпуска: 21.09.2014
Язык комментариев: Интершум / Natural sounds
Описание: Континентальный европейский сезон закончен. Команды отправляются в финальное турне, в ходе которого посетят Сингапур, Японию, Россию, США, Бразилию и Абу-Даби.
Гран При Сингапура – первая в истории чемпионата ночная гонка. Премьера состоялась в 2008 году, а теперь при искусственном освещении проводятся этапы в Абу-Даби и Бахрейне.
После победы Льюиса Хэмилтона в Монце разрыв между двумя лидерами чемпионата сократился и составляет 22 очка. Борьба за титул продолжается.
Качество: HDTVRip
Формат видео: MP4
Видео: x264, 1280x720, 25 fps, ~2100 kbps
Аудио: AAC, 2ch, 48 kHz, ~96 kbps

MediaInfo

General
Format : Flash Video
File size : 2.10 GiB
Duration : 2h 12mn
Overall bit rate : 2 266 Kbps
Tagging application : Yet Another Metadata Injector for FLV - Version 1.8
Video
Format : AVC
Format/Info : Advanced Video Codec
Format profile : High@L4.0
Format settings, CABAC : Yes
Format settings, ReFrames : 6 frames
Codec ID : 7
Duration : 2h 15mn
Bit rate : 2 110 Kbps
Width : 1 280 pixels
Height : 720 pixels
Display aspect ratio : 16:9
Frame rate mode : Constant
Frame rate : 25.000 fps
Color space : YUV
Chroma subsampling : 4:2:0
Bit depth : 8 bits
Scan type : Progressive
Bits/(Pixel*Frame) : 0.092
Stream size : 2.00 GiB (95%)
Writing library : Provided by x264 :: H.264/MPEG-4 AVC codec -V 1.6.07
Color primaries : BT.709
Transfer characteristics : BT.709
Matrix coefficients : BT.709
Audio
Format : AAC
Format/Info : Advanced Audio Codec
Format profile : LC
Codec ID : 10
Duration : 2h 20mn
Bit rate : 94.4 Kbps
Channel count : 2 channels
Channel positions : Front: L R
Sampling rate : 44.1 KHz
Compression mode : Lossy
Delay relative to video : 80ms
Stream size : 95.2 MiB (4%)

Продолжительность

02:12:27

Скриншоты


_________________
Показать сообщения:    

Текущее время: Сегодня 22:13

Часовой пояс: GMT



Вы не можете начинать темы
Вы не можете отвечать на сообщения
Вы не можете редактировать свои сообщения
Вы не можете удалять свои сообщения
Вы не можете голосовать в опросах
Вы не можете прикреплять файлы к сообщениям
Вы не можете скачивать файлы