Важное объявление!
У Нас Все раздачи мультитрекерные, при нуле пиров в релизах, можете смело вставать на закачку!
 
Автор Сообщение

HUNTER

Стаж:
4 года 4 месяца
Сообщений:
56839

Репутация: 101

[+] [-]
Вне форума [Профиль] [ЛС]

--Фонтан / The Fountain«What If You Could Live Forever?»-
-Год выпуска: 2006
Страна: США
Жанр: фантастика, мелодрама, философская драма
Продолжительность: 01:36:55
Перевод №1: Профессиональный (дублированный)
Перевод №2: Профессиональный (многоголосый закадровый, Первый канал)
Перевод №3: Любительский (двухголосый закадровый, Интерфильм)
Перевод №4: Авторский (одноголосый закадровый, Ю.Немахов)
Перевод №5: Авторский (одноголосый закадровый, Ю.Живов)
Субтитры: Русские, Английские-Режиссер: Даррен Аронофски / Darren Aronofsky
Сценарий: Даррен Аронофски / Darren Aronofsky, Эри Хэндел / Ari Handel
Продюсер: Арнон Милчэн / Arnon Milchan, Айэйн Смит / Iain Smith, Эрик Уотсон / Eric Watson, Ник Уэкслер / Nick Wechsler, Эри Хэндел / Ari Handel
Оператор: Мэттью Либатик / Matthew Libatique
Композитор: Клинт Мэнселл / Clint Mansell
В ролях: Хью Джекман / Hugh Jackman (Tomas /Tommy /Tom Creo), Рейчел Вайс / Rachel Weisz (Isabel /Izzi Creo), Эллен Бёрстин / Ellen Burstyn (Dr. Lillian Guzetti), Марк Марголис / Mark Margolis (Father Avila), Стивен МакХэтти / Stephen McHattie (Grand Inquisitor Silecio), Фернандо Эрнандез / Fernando Hernandez (Lord of Xibalba), Клифф Кёртис / Cliff Curtis (Captain Ariel), Шон Патрик Томас / Sean Patrick Thomas (Antonio), Донна Мерфи / Donna Murphy (Betty), Итан Сапли / Ethan Suplee (Manny), Ричард МакМиллан / Richard MacMillan (Henry), Лорн Брасс / Lorne Brass (Dr. Alan Lipper)-Описание: Эта история о переплетении времен и человеческих чувств. Временной отрезок, который охватывает фильм, составляет тысячу лет: действие параллельно развивается в настоящем времени, 2500-м и 1500-м годах. Главным действующим лицом является Томас Крео, который, чтобы спасти свою смертельно больную жену Изабель, ищет Древо Жизни, сок которого, как говорят легенды, дарует вечную жизнь.-
Доп. информация: Исходник Фонтан / The Fountain (Даррен Аронофски / Darren Aronofsky) [2006, фантастика, мелодрама, философская драма, BluRay]-Качество: Blu-ray Rip 1080p
Формат: MKV
Видео: MPEG-4 AVC (H264), High Profile 4.1, 1920x1038, 23.976 fps, ~13000 kbps avg, bit/(pixel*frame) 0.272
Аудио №1: Russian: 48 kHz, AC3, 3/2 (L,C,R,l,r) + LFE ch, ~448.00 kbps avg //дублированный
Аудио №2: Russian: 48 kHz, AC3, 2.0 (L,R) ch, ~192.00 kbps avg //многоголосый (закадровый, Первый канал)
Аудио №3: Russian: 48 kHz, AC3, 2.0 (L,R) ch, ~112.00 kbps avg //двухголосый (закадровый, Интерфильм)
Аудио №4: Russian: 48 kHz, DTS, 3/2 (L,C,R,l,r) + LFE ch, ~755.00 kbps avg //одноголосый (закадровый, Ю.Немахов)
Аудио №5: Russian: 48 kHz, AC3, 3/2 (L,C,R,l,r) + LFE ch, ~448.00 kbps avg //одноголосый (закадровый, Ю.Живов)
Аудио №6: English: 48 kHz, DTS, 3/2 (L,C,R,l,r) + LFE ch, ~1510.00 kbps avg //оригинал
Аудио №7: English: 48 kHz, AC3, 2.0 (L,R) ch, ~192.00 kbps avg //commentary by Darren Aronofsky
Субтитры: Russian forced (SRT), Russian forced (ASS), Russian full (SRT), Russian full (ASS), English full (SRT), English SDH (SRT)
Навигация по главам: есть-

MediaInfo

J:\The Fountain [Фонтан] (2006) 1920x1038 BDRip RusEngSubsChpt.mkv
General
Unique ID : 227167315550637352747746896496504675349 (0xAAE6D562E913227FBDFA2CCA5FF11C15)
Complete name : J:\The Fountain [Фонтан] (2006) 1920x1038 BDRip RusEngSubsChpt.mkv
Format : Matroska
Format version : Version 4 / Version 2
File size : 11.5 GiB
Duration : 1h 36mn
Overall bit rate : 17.0 Mbps
Movie name : -=RbM=-
Encoded date : UTC 2014-03-10 17:50:46
Writing application : mkvmerge v6.6.0 ('The Edge Of The In Between') built on Dec 1 2013 17:55:00
Writing library : libebml v1.3.0 + libmatroska v1.4.1
Video #1
ID : 1
Format : AVC
Format/Info : Advanced Video Codec
Format profile : High@L4.1
Format settings, CABAC : Yes
Format settings, ReFrames : 4 frames
Codec ID : V_MPEG4/ISO/AVC
Duration : 1h 36mn
Bit rate : 13.0 Mbps
Width : 1 920 pixels
Height : 1 038 pixels
Display aspect ratio : 1.85:1
Frame rate mode : Constant
Frame rate : 23.976 fps
Color space : YUV
Chroma subsampling : 4:2:0
Bit depth : 8 bits
Scan type : Progressive
Bits/(Pixel*Frame) : 0.272
Stream size : 8.80 GiB (76%)
Title : 41% of the original
Writing library : x264 core 142 r2389+41 02cb608 tMod [8-bit@all X86]
Encoding settings : cabac=1 / ref=4 / deblock=1:-2:-2 / analyse=0x3:0x133 / me=umh / subme=11 / psy=1 / fade_compensate=0.00 / psy_rd=1.00:0.00 / mixed_ref=1 / me_range=32 / chroma_me=1 / trellis=2 / 8x8dct=1 / cqm=0 / deadzone=21,11 / fast_pskip=0 / chroma_qp_offset=-2 / threads=12 / lookahead_threads=2 / sliced_threads=0 / nr=0 / decimate=1 / interlaced=0 / bluray_compat=0 / constrained_intra=0 / fgo=0 / bframes=9 / b_pyramid=2 / b_adapt=2 / b_bias=0 / direct=3 / weightb=1 / open_gop=0 / weightp=2 / keyint=240 / keyint_min=23 / scenecut=40 / intra_refresh=0 / rc=crf / mbtree=0 / crf=17.0000 / qcomp=0.60 / qpmin=0:0:0 / qpmax=69:69:69 / qpstep=4 / ip_ratio=1.40 / pb_ratio=1.25 / aq=4:0.70 / aq-sensitivity=10.00 / aq-factor=1.00:1.00:1.00 / aq2=0 / aq3=0
Language : English
Default : Yes
Forced : No
Audio #2
ID : 2
Format : AC-3
Format/Info : Audio Coding 3
Mode extension : CM (complete main)
Format settings, Endianness : Big
Codec ID : A_AC3
Duration : 1h 36mn
Bit rate mode : Constant
Bit rate : 448 Kbps
Channel(s) : 6 channels
Channel positions : Front: L C R, Side: L R, LFE
Sampling rate : 48.0 KHz
Bit depth : 16 bits
Compression mode : Lossy
Stream size : 311 MiB (3%)
Title : Dub AC3 5.1ch 448kbps
Language : Russian
Default : Yes
Forced : No
Audio #3
ID : 3
Format : AC-3
Format/Info : Audio Coding 3
Mode extension : CM (complete main)
Format settings, Endianness : Big
Codec ID : A_AC3
Duration : 1h 36mn
Bit rate mode : Constant
Bit rate : 192 Kbps
Channel(s) : 2 channels
Channel positions : Front: L R
Sampling rate : 48.0 KHz
Bit depth : 16 bits
Compression mode : Lossy
Stream size : 133 MiB (1%)
Title : MVO AC3 2.0ch 192kbps (Первый канал)
Language : Russian
Default : No
Forced : No
Audio #4
ID : 4
Format : AC-3
Format/Info : Audio Coding 3
Mode extension : CM (complete main)
Format settings, Endianness : Big
Codec ID : A_AC3
Duration : 1h 36mn
Bit rate mode : Constant
Bit rate : 112 Kbps
Channel(s) : 2 channels
Channel positions : Front: L R
Sampling rate : 48.0 KHz
Bit depth : 16 bits
Compression mode : Lossy
Stream size : 77.6 MiB (1%)
Title : DVO AC3 2.0ch 112kbps (Интерфильм)
Language : Russian
Default : No
Forced : No
Audio #5
ID : 5
Format : DTS
Format/Info : Digital Theater Systems
Mode : 16
Format settings, Endianness : Big
Codec ID : A_DTS
Duration : 1h 36mn
Bit rate mode : Constant
Bit rate : 755 Kbps
Channel(s) : 6 channels
Channel positions : Front: L C R, Side: L R, LFE
Sampling rate : 48.0 KHz
Bit depth : 24 bits
Compression mode : Lossy
Stream size : 523 MiB (4%)
Title : AVO DTS 5.1ch 755kbps (Ю.Немахов)
Language : Russian
Default : No
Forced : No
Audio #6
ID : 6
Format : AC-3
Format/Info : Audio Coding 3
Mode extension : CM (complete main)
Format settings, Endianness : Big
Codec ID : A_AC3
Duration : 1h 36mn
Bit rate mode : Constant
Bit rate : 448 Kbps
Channel(s) : 6 channels
Channel positions : Front: L C R, Side: L R, LFE
Sampling rate : 48.0 KHz
Bit depth : 16 bits
Compression mode : Lossy
Stream size : 311 MiB (3%)
Title : AVO AC3 5.1ch 448kbps (Ю.Живов)
Language : Russian
Default : No
Forced : No
Audio #7
ID : 7
Format : DTS
Format/Info : Digital Theater Systems
Mode : 16
Format settings, Endianness : Big
Codec ID : A_DTS
Duration : 1h 36mn
Bit rate mode : Constant
Bit rate : 1 509 Kbps
Channel(s) : 6 channels
Channel positions : Front: L C R, Side: L R, LFE
Sampling rate : 48.0 KHz
Bit depth : 24 bits
Compression mode : Lossy
Stream size : 1.02 GiB (9%)
Title : Original DTS 5.1ch 1510kbps
Language : English
Default : No
Forced : No
Audio #8
ID : 8
Format : AC-3
Format/Info : Audio Coding 3
Mode extension : CM (complete main)
Format settings, Endianness : Big
Codec ID : A_AC3
Duration : 1h 36mn
Bit rate mode : Constant
Bit rate : 192 Kbps
Channel(s) : 2 channels
Channel positions : Front: L R
Sampling rate : 48.0 KHz
Bit depth : 16 bits
Compression mode : Lossy
Stream size : 133 MiB (1%)
Title : Original AC3 2.0ch 192kbps (commentary by Darren Aronofsky)
Language : English
Default : No
Forced : No
Text #9
ID : 9
Format : UTF-8
Codec ID : S_TEXT/UTF8
Codec ID/Info : UTF-8 Plain Text
Title : forced SRT
Language : Russian
Default : Yes
Forced : No
Text #10
ID : 10
Format : ASS
Codec ID : S_TEXT/ASS
Codec ID/Info : Advanced Sub Station Alpha
Compression mode : Lossless
Title : forced ASS
Language : Russian
Default : No
Forced : No
Text #11
ID : 11
Format : UTF-8
Codec ID : S_TEXT/UTF8
Codec ID/Info : UTF-8 Plain Text
Title : full SRT
Language : Russian
Default : No
Forced : No
Text #12
ID : 12
Format : ASS
Codec ID : S_TEXT/ASS
Codec ID/Info : Advanced Sub Station Alpha
Compression mode : Lossless
Title : full ASS
Language : Russian
Default : No
Forced : No
Text #13
ID : 13
Format : UTF-8
Codec ID : S_TEXT/UTF8
Codec ID/Info : UTF-8 Plain Text
Title : full
Language : English
Default : No
Forced : No
Text #14
ID : 14
Format : UTF-8
Codec ID : S_TEXT/UTF8
Codec ID/Info : UTF-8 Plain Text
Title : SDH
Language : English
Default : No
Forced : No
Menu
00:00:00.000 : en:Flaming Sword
00:06:58.834 : en:Tree of Life
00:10:18.001 : en:Walk With Me
00:14:40.001 : en:Rejuvenation
00:20:04.501 : en:Dying Star
00:23:20.001 : en:Awash In Feeling
00:27:24.335 : en:Medical First
00:30:17.002 : en:Spain Is On Fire
00:35:05.336 : en:Would-Be Target
00:37:53.003 : en:Holy Pyramid
00:43:46.337 : en:I Will Be Your Eve
00:46:02.871 : en:Hope and Time
00:50:22.672 : en:Why Are You Here?
00:53:30.373 : en:Always With You
00:59:11.506 : en:Almost There
01:01:38.040 : en:Death In Circles
01:06:37.874 : en:Too Late
01:10:12.041 : en:Memory Rings
01:14:57.174 : en:We Will Live Forever
01:19:49.374 : en:Finish It
01:23:32.008 : en:The Fountain
01:26:55.175 : en:Everything's All Right
01:30:00.009 : en:End Credits

x264 log

x264 [info]: frame I:887 Avg QP:14.16 size:205011 PSNR Mean Y:49.74 U:52.19 V:54.36 Avg:50.57 Global:49.95
x264 [info]: frame P:26383 Avg QP:15.64 size:112658 PSNR Mean Y:48.50 U:51.07 V:53.45 Avg:49.36 Global:48.58
x264 [info]: frame B:112170 Avg QP:17.76 size: 58293 PSNR Mean Y:47.15 U:50.51 V:53.18 Avg:48.16 Global:47.31
x264 [info]: consecutive B-frames: 1.7% 1.5% 4.0% 4.6% 4.6% 78.1% 2.4% 0.5% 1.1% 1.5%
x264 [info]: mb I I16..4: 4.9% 88.2% 7.0%
x264 [info]: mb P I16..4: 0.8% 22.7% 0.6% P16..4: 24.4% 33.1% 11.7% 1.2% 0.0% skip: 5.5%
x264 [info]: mb B I16..4: 0.1% 1.8% 0.0% B16..8: 43.0% 23.2% 3.7% direct:10.5% skip:17.8% L0:44.1% L1:44.7% BI:11.3%
x264 [info]: 8x8 transform intra:93.8% inter:66.9%
x264 [info]: direct mvs spatial:100.0% temporal:0.0%
x264 [info]: coded y,uvDC,uvAC intra: 94.6% 86.0% 65.8% inter: 51.9% 36.4% 4.4%
x264 [info]: i16 v,h,dc,p: 43% 9% 4% 44%
x264 [info]: i8 v,h,dc,ddl,ddr,vr,hd,vl,hu: 7% 6% 8% 11% 15% 13% 13% 13% 14%
x264 [info]: i4 v,h,dc,ddl,ddr,vr,hd,vl,hu: 10% 6% 9% 10% 15% 13% 13% 11% 13%
x264 [info]: i8c dc,h,v,p: 44% 22% 18% 16%
x264 [info]: Weighted P-Frames: Y:19.3% UV:14.9%
x264 [info]: ref P L0: 48.8% 7.9% 24.3% 16.4% 2.3% 0.2%
x264 [info]: ref B L0: 86.0% 11.3% 2.7%
x264 [info]: ref B L1: 92.2% 7.8%
x264 [info]: SSIM Mean Y:0.9820051 (17.449db)
x264 [info]: PSNR Mean Y:47.425 U:50.625 V:53.237 Avg:48.405 Global:47.537 kb/s:13333.03
x264 [info]: encoded 139440 frames, 3.191 fps, 13333.03 kb/s, 9243.8 MB
x264 [info]: ended at Mon Mar 10 19:24:19 2014
x264 [info]: encoding duration 12:08:22

_________________
Показать сообщения:    

Текущее время: Сегодня 03:10

Часовой пояс: GMT



Вы не можете начинать темы
Вы не можете отвечать на сообщения
Вы не можете редактировать свои сообщения
Вы не можете удалять свои сообщения
Вы не можете голосовать в опросах
Вы не можете прикреплять файлы к сообщениям
Вы не можете скачивать файлы