Важное объявление!
У Нас Все раздачи мультитрекерные, при нуле пиров в релизах, можете смело вставать на закачку!
 
Автор Сообщение

HUNTER

Стаж:
4 года 4 месяца
Сообщений:
56719

Репутация: 101

[+] [-]
Вне форума [Профиль] [ЛС]


Флинтстоуны | The Flintstones
«Yabba-Dabba-Doo!»
-
Страна: США
Жанр: комедия, семейный
Год выпуска: 1994
Продолжительность: 01:30:39
Перевод: Профессиональный (многоголосый закадровый) SDI Media
Перевод 2: Профессиональный (двухголосый закадровый) Премьер Видео
Перевод 3: Профессиональный (двухголосый закадровый) НТВ+
Перевод 4: Авторский (одноголосый закадровый) Андрей Гаврилов
Перевод 5: Авторский (одноголосый закадровый) - Василий Горчаков
Перевод 6: Авторский (одноголосый закадровый) - Антон Алексеев
Cубтитры: английские
Оригинальная аудиодорожка: английский
Режиссер: Брайан Левант / Brian Levant
В ролях:
Джон Гудман | John Goodman
Рик Морэнис | Rick Moranis
Холли Берри | Halle Berry
Кайл МакЛоклен | Kyle MacLachlan
Элизабет Тейлор | Elizabeth Taylor
Элизабет Перкинс, Рози О’Доннелл, Дэнн Флорек, Ирвин Кийес, Джонатан Уинтерс...-ОписаниеДвое закадычных друзей Фред Флинтстоун и Барни Раббл уже много лет работают на каменоломне в Бедроке. Однажды начальство каменоломни решает провести тест среди рабочих, дабы выявить способных работников, которых ждёт повышение, а остальных — просто-напросто уволить.
Фред уверен, что не пройдёт этот тест и совсем потерял надежду, однако его добрый друг Барни, жаждущий отблагодарить приятеля за всю помощь, которую тот ему оказывал, незаметно поменял ответы на тест Фреда на свои. После чего Фреда повысили на работе, а Барни уволили. И чем шикарнее со временем становилась жизнь семьи Флинтстоунов, тем меньше крепла дружба Фреда и Барни.
-Сэмпл

IMDb: 4.80 (54 818)
Тип релиза: BDRip 720p BDRemux 1080p
Контейнер: MKV
Видео: AVC 6997 Kbps 1280 x 694 (1.844) 23.976 fps
Аудио: AC-3 192 Kbps 2 channels, 48.0 KHz MVO SDI Media
Аудио 2: AC-3 192 Kbps 2 channels, 48.0 KHz DVO Премьер Видео
Аудио 3: AC-3 192 Kbps 2 channels, 48.0 KHz DVO НТВ+
Аудио 4: AC-3 448 Kbps 6 channels, 48.0 KHz AVO Андрей Гаврилов
Аудио 5: AC-3 192 Kbps 2 channels, 48.0 KHz AVO Василий Горчаков
Аудио 6: AC-3 128 Kbps 1 channels, 48.0 KHz AVO Антон Алексеев
Аудио 7: DTS 1509 Kbps 6 channels, 48.0 KHz Eng
Формат субтитров: softsub (SRT)

MediaInfo | Log

Log
x264 [info]: frame I:1261 Avg QP:15.78 size:149977
x264 [info]: frame P:28800 Avg QP:16.65 size: 67835
x264 [info]: frame B:100354 Avg QP:19.13 size: 27384
x264 [info]: consecutive B-frames: 2.0% 2.1% 8.0% 25.8% 21.7% 35.9% 2.6% 1.0% 0.6% 0.2% 0.2%
x264 [info]: mb I I16..4: 3.3% 88.5% 8.2%
x264 [info]: mb P I16..4: 0.5% 27.3% 1.3% P16..4: 23.0% 28.2% 14.1% 1.9% 0.1% skip: 3.6%
x264 [info]: mb B I16..4: 0.1% 4.9% 0.2% B16..8: 29.3% 23.0% 4.5% direct:10.6% skip:27.4% L0:35.8% L1:36.7% BI:27.5%
x264 [info]: 8x8 transform intra:93.8% inter:58.7%
x264 [info]: direct mvs spatial:100.0% temporal:0.0%
x264 [info]: coded y,uvDC,uvAC intra: 96.6% 92.5% 74.9% inter: 40.0% 31.9% 5.9%
x264 [info]: i16 v,h,dc,p: 35% 7% 4% 53%
x264 [info]: i8 v,h,dc,ddl,ddr,vr,hd,vl,hu: 11% 9% 11% 9% 13% 12% 10% 12% 13%
x264 [info]: i4 v,h,dc,ddl,ddr,vr,hd,vl,hu: 15% 7% 14% 7% 14% 13% 11% 9% 10%
x264 [info]: i8c dc,h,v,p: 44% 22% 17% 17%
x264 [info]: Weighted P-Frames: Y:5.9% UV:3.5%
x264 [info]: ref P L0: 42.2% 12.0% 21.1% 6.5% 6.3% 3.6% 3.9% 1.9% 2.3% 0.2% 0.0%
x264 [info]: ref B L0: 83.9% 8.6% 2.9% 1.7% 1.1% 1.0% 0.5% 0.3%
x264 [info]: ref B L1: 96.9% 3.1%
x264 [info]: kb/s:7193.28
x264 [total]: encoded 130415 frames, 5.99 fps, 7193.28 kb/s, duration 6:03:04.55
Format : Matroska
Format version : Version 4 / Version 2
File size : 6.36 GiB
Duration : 1h 30mn
Overall bit rate : 10.1 Mbps
Encoded date : UTC 2015-02-18 11:51:09
Writing application : mkvmerge v6.7.0 ('Back to the Ground') 32bit built on Jan 8 2014 15:03:17
Writing library : libebml v1.3.0 + libmatroska v1.4.1
Video
ID : 1
Format : AVC
Format/Info : Advanced Video Codec
Format profile : High@L4.1
Format settings, CABAC : Yes
Format settings, ReFrames : 9 frames
Codec ID : V_MPEG4/ISO/AVC
Duration : 1h 30mn
Bit rate : 6 997 Kbps
Width : 1 280 pixels
Height : 694 pixels
Display aspect ratio : 1.85:1
Frame rate mode : Constant
Frame rate : 23.976 fps
Color space : YUV
Chroma subsampling : 4:2:0
Bit depth : 8 bits
Scan type : Progressive
Bits/(Pixel*Frame) : 0.329
Stream size : 4.43 GiB (70%)
Title : The Flintstones 1994 [rutracker.org]
Writing library : x264 core 144 r2525kMod 40bb568
Encoding settings : cabac=1 / ref=9 / deblock=1:-3:-2 / analyse=0x3:0x133 / me=umh / subme=11 / psy=1 / fade_compensate=0.00 / psy_rd=1.00:0.05 / mixed_ref=1 / me_range=32 / chroma_me=1 / trellis=2 / 8x8dct=1 / cqm=0 / deadzone=21,11 / fast_pskip=0 / chroma_qp_offset=-3 / threads=12 / lookahead_threads=3 / sliced_threads=0 / nr=0 / decimate=1 / interlaced=0 / bluray_compat=0 / constrained_intra=0 / fgo=0 / bframes=10 / b_pyramid=2 / b_adapt=2 / b_bias=0 / direct=3 / weightb=1 / open_gop=0 / weightp=2 / keyint=250 / keyint_min=23 / scenecut=40 / intra_refresh=0 / rc_lookahead=80 / rc=crf / mbtree=0 / crf=16.6000 / qcomp=0.60 / qpmin=0 / qpmax=69 / qpstep=4 / vbv_maxrate=50000 / vbv_bufsize=62500 / crf_max=0.0 / nal_hrd=none / filler=0 / ip_ratio=1.40 / pb_ratio=1.30 / aq=3:0.90
Language : English
Default : Yes
Forced : No
Audio #1
ID : 2
Format : AC-3
Format/Info : Audio Coding 3
Mode extension : CM (complete main)
Format settings, Endianness : Big
Codec ID : A_AC3
Duration : 1h 30mn
Bit rate mode : Constant
Bit rate : 192 Kbps
Channel(s) : 2 channels
Channel positions : Front: L R
Sampling rate : 48.0 KHz
Bit depth : 16 bits
Compression mode : Lossy
Stream size : 124 MiB (2%)
Title : MVO [SDI Media]
Language : Russian
Default : Yes
Forced : No
Audio #2
ID : 3
Format : AC-3
Format/Info : Audio Coding 3
Mode extension : CM (complete main)
Format settings, Endianness : Big
Codec ID : A_AC3
Duration : 1h 30mn
Bit rate mode : Constant
Bit rate : 192 Kbps
Channel(s) : 2 channels
Channel positions : Front: L R
Sampling rate : 48.0 KHz
Bit depth : 16 bits
Compression mode : Lossy
Stream size : 124 MiB (2%)
Title : DVO [Premier Film]
Language : Russian
Default : No
Forced : No
Audio #3
ID : 4
Format : AC-3
Format/Info : Audio Coding 3
Mode extension : CM (complete main)
Format settings, Endianness : Big
Codec ID : A_AC3
Duration : 1h 30mn
Bit rate mode : Constant
Bit rate : 192 Kbps
Channel(s) : 2 channels
Channel positions : Front: L R
Sampling rate : 48.0 KHz
Bit depth : 16 bits
Compression mode : Lossy
Stream size : 124 MiB (2%)
Title : DVO [NTV Plus]
Language : Russian
Default : No
Forced : No
Audio #4
ID : 5
Format : AC-3
Format/Info : Audio Coding 3
Mode extension : CM (complete main)
Format settings, Endianness : Big
Codec ID : A_AC3
Duration : 1h 30mn
Bit rate mode : Constant
Bit rate : 448 Kbps
Channel(s) : 6 channels
Channel positions : Front: L C R, Side: L R, LFE
Sampling rate : 48.0 KHz
Bit depth : 16 bits
Compression mode : Lossy
Stream size : 290 MiB (4%)
Title : AVO [A Gavrilov]
Language : Russian
Default : No
Forced : No
Audio #5
ID : 6
Format : AC-3
Format/Info : Audio Coding 3
Mode extension : CM (complete main)
Format settings, Endianness : Big
Codec ID : A_AC3
Duration : 1h 30mn
Bit rate mode : Constant
Bit rate : 192 Kbps
Channel(s) : 2 channels
Channel positions : Front: L R
Sampling rate : 48.0 KHz
Bit depth : 16 bits
Compression mode : Lossy
Stream size : 124 MiB (2%)
Title : AVO [V Gorchacov]
Language : Russian
Default : No
Forced : No
Audio #6
ID : 7
Format : AC-3
Format/Info : Audio Coding 3
Mode extension : CM (complete main)
Format settings, Endianness : Big
Codec ID : A_AC3
Duration : 1h 30mn
Bit rate mode : Constant
Bit rate : 128 Kbps
Channel(s) : 1 channel
Channel positions : Front: C
Sampling rate : 48.0 KHz
Bit depth : 16 bits
Compression mode : Lossy
Stream size : 83.0 MiB (1%)
Title : AVO [A. Alekseev]
Language : Russian
Default : No
Forced : No
Audio #7
ID : 8
Format : DTS
Format/Info : Digital Theater Systems
Mode : 16
Format settings, Endianness : Big
Codec ID : A_DTS
Duration : 1h 30mn
Bit rate mode : Constant
Bit rate : 1 509 Kbps
Channel(s) : 6 channels
Channel positions : Front: L C R, Side: L R, LFE
Sampling rate : 48.0 KHz
Bit depth : 24 bits
Compression mode : Lossy
Stream size : 978 MiB (15%)
Title : Original
Language : English
Default : No
Forced : No
Text
ID : 9
Format : UTF-8
Codec ID : S_TEXT/UTF8
Codec ID/Info : UTF-8 Plain Text
Title : Full
Language : English
Default : No
Forced : No
Menu
00:00:00.000 : :Chapter 01
00:04:08.914 : :Chapter 02
00:09:28.608 : :Chapter 03
00:14:49.179 : :Chapter 04
00:19:21.493 : :Chapter 05
00:25:29.069 : :Chapter 06
00:29:19.507 : :Chapter 07
00:34:29.317 : :Chapter 08
00:40:39.061 : :Chapter 09
00:45:55.710 : :Chapter 10
00:48:50.677 : :Chapter 11
00:55:29.242 : :Chapter 12
01:00:39.802 : :Chapter 13
01:05:56.744 : :Chapter 14
01:11:37.001 : :Chapter 15
01:15:40.410 : :Chapter 16
01:19:55.122 : :Chapter 17
01:23:17.033 : :Chapter 18
01:30:39.183 : :Chapter 19

Скриншоты





_________________
Показать сообщения:    

Текущее время: Сегодня 04:33

Часовой пояс: GMT



Вы не можете начинать темы
Вы не можете отвечать на сообщения
Вы не можете редактировать свои сообщения
Вы не можете удалять свои сообщения
Вы не можете голосовать в опросах
Вы не можете прикреплять файлы к сообщениям
Вы не можете скачивать файлы