Важное объявление!
У Нас Все раздачи мультитрекерные, при нуле пиров в релизах, можете смело вставать на закачку!
 
Автор Сообщение

HUNTER

Стаж:
4 года 4 месяца
Сообщений:
56734

Репутация: 101

[+] [-]
Вне форума [Профиль] [ЛС]

24.08.16 раздача обновлена, HDTV заменен на BDRip.-Флинтстоуны / The Flintstones
Страна: США
Жанр: комедия, семейный
Год выпуска: 1994
Продолжительность: 01:30:39
Перевод 1: Профессиональный (многоголосый закадровый) SDI-Media Ольга Вербицкая, Елена Сигова, Ольга Галямова, Родион Кузьмин, Анатолий Фечин, Михаил Карасиков.
Перевод 2: Профессиональный (двухголосый закадровый) Премьер Видео Фильм Любовь Германова, Вадим Андреев.
Перевод 3: Профессиональный (двухголосый закадровый) НТВ+ Ольга Голованова, Никита Прозоровский.
Перевод 4: Профессиональный (многоголосый закадровый) 1 канал
Перевод 5: Авторский (одноголосый закадровый) Андрей Гаврилов
Перевод 6: Авторский (одноголосый закадровый) Василий Горчаков
Перевод 7: Авторский (одноголосый закадровый) Антон Алексеев
Cубтитры: русские, английские
Оригинальная аудиодорожка: английский
Режиссер: Брайан Левант / Brian Levant
В ролях: Джон Гудман, Элизабет Перкинс, Рик Морэнис, Рози О’Доннелл, Кайл МакЛоклен, Холли Берри, Элизабет Тейлор, Дэнн Флорек, Ирвин Кийес, Джонатан Уинтерс...
Описание: Двое закадычных друзей Фред Флинтстоун и Барни Раббл уже много лет работают на каменоломне в Бедроке. Однажды начальство каменоломни решает провести тест среди рабочих, дабы выявить способных работников, которых ждёт повышение, а остальных — просто-напросто уволить.
Фред уверен, что не пройдёт этот тест и совсем потерял надежду, однако его добрый друг Барни, жаждущий отблагодарить приятеля за всю помощь, которую тот ему оказывал, незаметно поменял ответы на тест Фреда на свои. После чего Фреда повысили на работе, а Барни уволили. И чем шикарнее со временем становилась жизнь семьи Флинтстоунов, тем меньше крепла дружба Фреда и Барни.
Сэмпл: http://sendfile.su/1259605
Тип релиза: [url=viewtopic.php?t=4886774]BDRip 1080p[/url]
Контейнер: MKV
Видео: 1920x1040 (1.85:1), 23.976 fps, AVC, ~12.6 Mbps, 0.263 bits/pixel
Аудио 1: Russian, 48.0 KHz, AC3, 2 ch, 192 Kbps - SDI-Media
Аудио 2: Russian, 48.0 KHz, AC3, 2 ch, 192 Kbps - Премьер Видео Фильм
Аудио 3: Russian, 48.0 KHz, AC3, 2 ch, 192 Kbps - НТВ+
Аудио 4: Russian, 48.0 KHz, AC3, 2 ch, 192 Kbps - 1 канал
Аудио 5: Russian, 48.0 KHz, AC3, 6 ch, 448 Kbps - Андрей Гаврилов
Аудио 6: Russian, 48.0 KHz, AC3, 2 ch, 192 Kbps - Василий Горчаков
Аудио 7: Russian, 48.0 KHz, AC3, 1 ch, 128 Kbps - Антон Алексеев
Аудио 8: English, 48.0 KHz, DTS, 6 ch, 1510 Kbps

Доп. информация

Звук, не с BDRemux.
Запись переводов: 1 канала, SDI-Media - xfiles.
Оцифровку VHS с переводом Алексеева - 21Sepsis.
Предоставление перевода Горчакова - JeRrS1989.
Предоставление перевода Гаврилова - tatyanochka2011.
Перевод Премьер Видео Фильм с раздачи soulstorm.
Перевод НТВ+ с раздачи DeVil_N.
Синхронизация переводов - Dreven.

Source | Encode




Log

avs4x26x.exe: -L x264_64.exe --crf 15.0 --preset medium --level 4.1 --ref 5 --deblock -1:-1 --merange 32 --bframes 10 --b-adapt 2 --trellis 2 --no-fast-pskip --subme 10 --me umh --rc-lookahead 50 --vbv-bufsize 14000 --vbv-maxrate 14000 --partitions p8x8,b8x8,i4x4,i8x8 --sar 1:1 --output
raw [info]: 1920x1040p 1:1 @ 24000/1001 fps (cfr)
x264 [info]: using SAR=1/1
x264 [warning]: DPB size (5 frames, 39000 mbs) > level limit (4 frames, 32768 mbs)
x264 [info]: using cpu capabilities: MMX2 SSE2Fast LZCNT
x264 [info]: profile High, level 4.1
x264 [info]: frame I:1115 Avg QP:14.02 size:307963
x264 [info]: frame P:26697 Avg QP:16.79 size:126779
x264 [info]: frame B:102602 Avg QP:19.55 size: 49227
x264 [info]: consecutive B-frames: 1.4% 0.9% 5.5% 20.7% 21.6% 45.3% 2.3% 0.9% 0.6% 0.6% 0.3%
x264 [info]: mb I I16..4: 4.5% 84.2% 11.3%
x264 [info]: mb P I16..4: 1.8% 27.8% 1.6% P16..4: 29.6% 24.7% 10.4% 0.0% 0.0% skip: 4.0%
x264 [info]: mb B I16..4: 0.2% 4.1% 0.2% B16..8: 35.2% 12.6% 3.3% direct:15.7% skip:28.8% L0:40.5% L1:35.7% BI:23.8%
x264 [info]: 8x8 transform intra:89.5% inter:61.1%
x264 [info]: coded y,uvDC,uvAC intra: 93.8% 84.4% 53.8% inter: 45.8% 34.2% 4.4%
x264 [info]: i16 v,h,dc,p: 24% 9% 14% 53%
x264 [info]: i8 v,h,dc,ddl,ddr,vr,hd,vl,hu: 10% 9% 9% 9% 13% 13% 11% 13% 14%
x264 [info]: i4 v,h,dc,ddl,ddr,vr,hd,vl,hu: 9% 7% 4% 9% 16% 16% 14% 12% 13%
x264 [info]: i8c dc,h,v,p: 46% 22% 19% 14%
x264 [info]: Weighted P-Frames: Y:4.3% UV:2.3%
x264 [info]: ref P L0: 46.0% 11.4% 23.3% 9.3% 9.6% 0.4% 0.0%
x264 [info]: ref B L0: 86.4% 9.3% 3.1% 1.2%
x264 [info]: ref B L1: 97.6% 2.4%
x264 [info]: kb/s:12911.48
x264 [total]: encoded 130414 frames, 2.27 fps, 12911.48 kb/s

MediaInfo

General
Unique ID : 204145754118560218436993687116741905770 (0x99950AC6418269ED86E6DEE145D88D6A)
Complete name : C:\The Flintstones. BDRip 1080p.mkv
Format : Matroska
Format version : Version 4 / Version 2
File size : 10.1 GiB
Duration : 1h 30mn
Overall bit rate : 16.0 Mbps
Encoded date : UTC 2016-08-24 16:33:21
Writing application : mkvmerge v9.3.1 ('Mask Machine') 64bit
Writing library : libebml v1.3.4 + libmatroska v1.4.5
Video
ID : 1
Format : AVC
Format/Info : Advanced Video Codec
Format profile : High@L4.1
Format settings, CABAC : Yes
Format settings, ReFrames : 5 frames
Codec ID : V_MPEG4/ISO/AVC
Duration : 1h 30mn
Bit rate : 12.9 Mbps
Width : 1 920 pixels
Height : 1 040 pixels
Display aspect ratio : 1.85:1
Frame rate mode : Constant
Frame rate : 23.976 (24000/1001) fps
Color space : YUV
Chroma subsampling : 4:2:0
Bit depth : 8 bits
Scan type : Progressive
Bits/(Pixel*Frame) : 0.270
Stream size : 8.18 GiB (81%)
Writing library : x264 core 148 r2705 3f5ed56
Encoding settings : cabac=1 / ref=5 / deblock=1:-1:-1 / analyse=0x3:0x113 / me=umh / subme=10 / psy=1 / psy_rd=1.00:0.00 / mixed_ref=1 / me_range=32 / chroma_me=1 / trellis=2 / 8x8dct=1 / cqm=0 / deadzone=21,11 / fast_pskip=0 / chroma_qp_offset=-2 / threads=6 / lookahead_threads=1 / sliced_threads=0 / nr=0 / decimate=1 / interlaced=0 / bluray_compat=0 / constrained_intra=0 / bframes=10 / b_pyramid=2 / b_adapt=2 / b_bias=0 / direct=1 / weightb=1 / open_gop=0 / weightp=2 / keyint=250 / keyint_min=23 / scenecut=40 / intra_refresh=0 / rc_lookahead=50 / rc=crf / mbtree=1 / crf=15.0 / qcomp=0.60 / qpmin=0 / qpmax=69 / qpstep=4 / vbv_maxrate=14000 / vbv_bufsize=14000 / crf_max=0.0 / nal_hrd=none / filler=0 / ip_ratio=1.40 / aq=1:1.00
Language : English
Default : Yes
Forced : No
Audio #1
ID : 2
Format : AC-3
Format/Info : Audio Coding 3
Mode extension : CM (complete main)
Format settings, Endianness : Big
Codec ID : A_AC3
Duration : 1h 30mn
Bit rate mode : Constant
Bit rate : 192 Kbps
Channel(s) : 2 channels
Channel positions : Front: L R
Sampling rate : 48.0 KHz
Frame rate : 31.250 fps (1536 spf)
Compression mode : Lossy
Stream size : 124 MiB (1%)
Title : SDI-Media
Language : Russian
Default : Yes
Forced : No
Audio #2
ID : 3
Format : AC-3
Format/Info : Audio Coding 3
Mode extension : CM (complete main)
Format settings, Endianness : Big
Codec ID : A_AC3
Duration : 1h 30mn
Bit rate mode : Constant
Bit rate : 192 Kbps
Channel(s) : 2 channels
Channel positions : Front: L R
Sampling rate : 48.0 KHz
Frame rate : 31.250 fps (1536 spf)
Compression mode : Lossy
Stream size : 124 MiB (1%)
Title : Премьер Видео Фильм
Language : Russian
Default : No
Forced : No
Audio #3
ID : 4
Format : AC-3
Format/Info : Audio Coding 3
Mode extension : CM (complete main)
Format settings, Endianness : Big
Codec ID : A_AC3
Duration : 1h 30mn
Bit rate mode : Constant
Bit rate : 192 Kbps
Channel(s) : 2 channels
Channel positions : Front: L R
Sampling rate : 48.0 KHz
Frame rate : 31.250 fps (1536 spf)
Compression mode : Lossy
Stream size : 124 MiB (1%)
Title : НТВ+
Language : Russian
Default : No
Forced : No
Audio #4
ID : 5
Format : AC-3
Format/Info : Audio Coding 3
Mode extension : CM (complete main)
Format settings, Endianness : Big
Codec ID : A_AC3
Duration : 1h 30mn
Bit rate mode : Constant
Bit rate : 192 Kbps
Channel(s) : 2 channels
Channel positions : Front: L R
Sampling rate : 48.0 KHz
Frame rate : 31.250 fps (1536 spf)
Compression mode : Lossy
Stream size : 124 MiB (1%)
Title : 1 канал
Language : Russian
Default : No
Forced : No
Audio #5
ID : 6
Format : AC-3
Format/Info : Audio Coding 3
Mode extension : CM (complete main)
Format settings, Endianness : Big
Codec ID : A_AC3
Duration : 1h 30mn
Bit rate mode : Constant
Bit rate : 448 Kbps
Channel(s) : 6 channels
Channel positions : Front: L C R, Side: L R, LFE
Sampling rate : 48.0 KHz
Frame rate : 31.250 fps (1536 spf)
Compression mode : Lossy
Stream size : 290 MiB (3%)
Title : Андрей Гаврилов
Language : Russian
Default : No
Forced : No
Audio #6
ID : 7
Format : AC-3
Format/Info : Audio Coding 3
Mode extension : CM (complete main)
Format settings, Endianness : Big
Codec ID : A_AC3
Duration : 1h 30mn
Bit rate mode : Constant
Bit rate : 192 Kbps
Channel(s) : 2 channels
Channel positions : Front: L R
Sampling rate : 48.0 KHz
Frame rate : 31.250 fps (1536 spf)
Compression mode : Lossy
Stream size : 124 MiB (1%)
Title : Василий Горчаков
Language : Russian
Default : No
Forced : No
Audio #7
ID : 8
Format : AC-3
Format/Info : Audio Coding 3
Mode extension : CM (complete main)
Format settings, Endianness : Big
Codec ID : A_AC3
Duration : 1h 30mn
Bit rate mode : Constant
Bit rate : 128 Kbps
Channel(s) : 1 channel
Channel positions : Front: C
Sampling rate : 48.0 KHz
Frame rate : 31.250 fps (1536 spf)
Compression mode : Lossy
Stream size : 83.0 MiB (1%)
Title : Антон Алексеев
Language : Russian
Default : No
Forced : No
Audio #8
ID : 9
Format : DTS
Format/Info : Digital Theater Systems
Mode : 16
Format settings, Endianness : Big
Codec ID : A_DTS
Duration : 1h 30mn
Bit rate mode : Constant
Bit rate : 1 509 Kbps
Channel(s) : 6 channels
Channel positions : Front: L C R, Side: L R, LFE
Sampling rate : 48.0 KHz
Frame rate : 93.750 fps (512 spf)
Bit depth : 24 bits
Compression mode : Lossy
Stream size : 978 MiB (9%)
Language : English
Default : No
Forced : No
Text #1
ID : 10
Format : UTF-8
Codec ID : S_TEXT/UTF8
Codec ID/Info : UTF-8 Plain Text
Duration : 1h 29mn
Bit rate : 96 bps
Count of elements : 1248
Stream size : 63.5 KiB (0%)
Title : SDI-Media
Language : Russian
Default : No
Forced : No
Text #2
ID : 11
Format : UTF-8
Codec ID : S_TEXT/UTF8
Codec ID/Info : UTF-8 Plain Text
Duration : 1h 29mn
Bit rate : 75 bps
Count of elements : 1412
Stream size : 50.1 KiB (0%)
Language : English
Default : No
Forced : No
Menu
00:00:00.000 : :Chapter 01
00:04:08.914 : :Chapter 02
00:09:28.608 : :Chapter 03
00:14:49.179 : :Chapter 04
00:19:21.493 : :Chapter 05
00:25:29.069 : :Chapter 06
00:29:19.507 : :Chapter 07
00:34:29.317 : :Chapter 08
00:40:39.061 : :Chapter 09
00:45:55.710 : :Chapter 10
00:48:50.677 : :Chapter 11
00:55:29.242 : :Chapter 12
01:00:39.802 : :Chapter 13
01:05:56.744 : :Chapter 14
01:11:37.001 : :Chapter 15
01:15:40.410 : :Chapter 16
01:19:55.122 : :Chapter 17
01:23:17.033 : :Chapter 18
01:30:39.183 : :Chapter 19

Скриншоты


_________________
Показать сообщения:    

Текущее время: Сегодня 14:50

Часовой пояс: GMT



Вы не можете начинать темы
Вы не можете отвечать на сообщения
Вы не можете редактировать свои сообщения
Вы не можете удалять свои сообщения
Вы не можете голосовать в опросах
Вы не можете прикреплять файлы к сообщениям
Вы не можете скачивать файлы