Важное объявление!
У Нас Все раздачи мультитрекерные, при нуле пиров в релизах, можете смело вставать на закачку!
 
Автор Сообщение

HUNTER

Стаж:
4 года 4 месяца
Сообщений:
56755

Репутация: 101

[+] [-]
Вне форума [Профиль] [ЛС]

Флинстоуны: борцы каменного века
The Flintstones & WWE: Stone Age Smackdown
Страна: США
Жанр: мультфильм, комедия, приключения, семейный
Продолжительность: 00:51:42
Год выпуска: 2015-Перевод: Профессиональный (Двухголосый закадровый)
Русские субтитры: нет
Режиссёр: Спайк Брандт, Тони Червоне / Spike Brandt, Tony Cervone-Роли озвучивали: Джон Сина, Грэй Гриффин, Кевин Майкл Ричардсон, Николь Гарсиа, Марк Колэуэй, Тресс МакНилл, СМ Панк, Расси Тейлор, Брианна Гарсиа, Винс МакМахон-Описание: Действие, по традиции, происходит в родном городке Флинстоунов, Бедроке. В одно прекрасное утро Фред просыпается в постели с любимой женой и мыслями о том, что было бы неплохо попросить у начальства повышения, а заодно позаботиться о семейном отпуске. Преисполненный надежд, Фред отправляется на стройку, но череда нелепых случайностей приводит к тому, что вместо долгожданной прибавки Флинстоун получает… ничего. Расстроенный Фред решает честно признаться Вильме, что отпуска не будет, но когда видит, что она уже приготовилась к поездке и даже купила эффектный купальник, то понимает, что просто не имеет права подводить семью. Теперь Фред должен заработать на отпуск, чего бы это ему ни стоило. И он находит весьма оригинальный выход из ситуации.-Релиз: | | -• Работа со звуком xfiles
• Работа с BDRemux'ом -Azureus--Качество: BDRip
Формат: AVI
Видео: 704x400 (1.76:1), 23,976 fps, XviD 65 ~2 369 kbps avg, 0.35 bit/pixel
Аудио: 48 kHz, AC3 Dolby Digital, 2/0 (L,R) ch, ~192 kbps |DVO|
Аудио: 48 kHz, AC3 Dolby Digital, 3/2 (L,C,R,l,r) + LFE ch, ~448 kbps avg |ENG|
Субтитры: English [srt]

MI


Общее
Полное имя : E:\incarcare\rip gata\The Flintstones & WWE Stone Age Smackdown.2015.BDRip\The Flintstones & WWE Stone Age Smackdown.2015.BDRip.avi
Формат : AVI
Формат/Информация : Audio Video Interleave
Размер файла : 1,09 Гбайт
Продолжительность : 51 м.
Общий поток : 3024 Кбит/сек
Программа кодирования : VirtualDubMod 1.5.10.2 (build 2540/release)
Библиотека кодирования : VirtualDubMod build 2540/release
Видео
Идентификатор : 0
Формат : MPEG-4 Visual
Профиль формата : Advanced Simple@L5
Параметр BVOP формата : 1
Параметр QPel формата : Нет
Параметр GMC формата : Без точки перехода
Параметр матрицы формата : Выборочная
Идентификатор кодека : XVID
Идентификатор кодека/Подсказка : XviD
Продолжительность : 51 м.
Битрейт : 2369 Кбит/сек
Ширина : 704 пикселя
Высота : 400 пикселей
Соотношение сторон : 16:9
Частота кадров : 23,976 кадра/сек
Цветовое пространство : YUV
Субдискретизация насыщенности : 4:2:0
Битовая глубина : 8 бит
Тип развёртки : Прогрессивная
Метод сжатия : С потерями
Бит/(Пиксели*Кадры) : 0.351
Размер потока : 876 Мбайт (78%)
Библиотека кодирования : XviD 65
Аудио #1
Идентификатор : 1
Формат : AC-3
Формат/Информация : Audio Coding 3
Расширение режима : CM (complete main)
Параметр Endianness формата : Big
Идентификатор кодека : 2000
Продолжительность : 51 м.
Вид битрейта : Постоянный
Битрейт : 192 Кбит/сек
Каналы : 2 канала
Расположение каналов : Front: L R
Частота : 48,0 КГц
Метод сжатия : С потерями
Размер потока : 71,0 Мбайт (6%)
Выравнивание : Разделение по промежуткам
Продолжительность промежутка : 42 мс. (1,00 видеокадр)
Время предзагрузки промежутка : 500 мс.
Аудио #2
Идентификатор : 2
Формат : AC-3
Формат/Информация : Audio Coding 3
Расширение режима : CM (complete main)
Параметр Endianness формата : Big
Идентификатор кодека : 2000
Продолжительность : 51 м.
Вид битрейта : Постоянный
Битрейт : 448 Кбит/сек
Каналы : 6 каналов
Расположение каналов : Front: L C R, Side: L R, LFE
Частота : 48,0 КГц
Метод сжатия : С потерями
Размер потока : 166 Мбайт (15%)
Выравнивание : Разделение по промежуткам
Продолжительность промежутка : 42 мс. (1,00 видеокадр)
Время предзагрузки промежутка : 500 мс.

Скриншоты


_________________
Показать сообщения:    

Текущее время: Сегодня 16:47

Часовой пояс: GMT



Вы не можете начинать темы
Вы не можете отвечать на сообщения
Вы не можете редактировать свои сообщения
Вы не можете удалять свои сообщения
Вы не можете голосовать в опросах
Вы не можете прикреплять файлы к сообщениям
Вы не можете скачивать файлы