Важное объявление!
У Нас Все раздачи мультитрекерные, при нуле пиров в релизах, можете смело вставать на закачку!
 
Автор Сообщение

HUNTER

Стаж:
4 года 4 месяца
Сообщений:
56809

Репутация: 101

[+] [-]
Вне форума [Профиль] [ЛС]

Флинстоуны: борцы каменного века
The Flintstones & WWE: Stone Age Smackdown
-
Страна: США
Жанр: комедия, приключения, семейный
Продолжительность: 00:51:42
Год выпуска: 2015
Перевод: Профессиональный (Двухголосый закадровый)
Русские субтитры: нет
Режиссёр: Спайк Брандт / Spike Brandt, Тони Червоне / Tony Cervone
Роли озвучивали: Джон Сина, Грэй Гриффин, Кевин Майкл Ричардсон, Николь Гарсиа, Марк Колэуэй, Тресс МакНилл, СМ Панк, Расси Тейлор, Брианна Гарсиа, Винс МакМахон-ОписаниеОстроумный полнометражный мультфильм о приключениях любимцев нескольких поколений, знаменитой на весь мир семейки Флинстоунов. На этот раз глава семейства отправляется на ринг, чтобы продемонстрировать всю мощь первобытного человека.
Действие, по традиции, происходит в родном городке Флинстоунов, Бедроке. В одно прекрасное утро Фред просыпается в постели с любимой женой и мыслями о том, что было бы неплохо попросить у начальства повышения, а заодно позаботиться о семейном отпуске. Преисполненный надежд, Фред отправляется на стройку, но череда нелепых случайностей приводит к тому, что вместо долгожданной прибавки Флинстоун получает… ничего. Расстроенный Фред решает честно признаться Вильме, что отпуска не будет, но когда видит, что она уже приготовилась к поездке и даже купила эффектный купальник, то понимает, что просто не имеет права подводить семью. Теперь Фред должен заработать на отпуск, чего бы это ему ни стоило. И он находит весьма оригинальный выход из ситуации.
-Релиз:

Сэмпл

Imdb Ratings: 5,5/10 from 174 users
Качество: BDRip-AVC BDRemux 1080p -Azureus-
Формат: MKV
Видео: AVC 1861 Kbps 1152 x 648 (1.778) 23.976 fps
Аудио: AC-3 192 Kbps 2 channels, 48.0 KHz Rus DVO
Аудио 2: AC-3 448 Kbps 6 channels, 48.0 KHz Eng
Субтитры: Eng [Full, SDH] SRT

MI | Log

Log
x264 [info]: frame I:711 Avg QP:14.69 size:181535
x264 [info]: frame P:20723 Avg QP:17.07 size: 19777
x264 [info]: frame B:52927 Avg QP:16.88 size: 3809
x264 [info]: consecutive B-frames: 4.2% 10.1% 6.2% 56.8% 6.6% 4.6% 1.3% 3.9% 1.0% 2.4% 0.7% 1.1% 1.2%
x264 [info]: mb I I16..4: 12.7% 33.8% 53.5%
x264 [info]: mb P I16..4: 0.8% 2.0% 1.7% P16..4: 19.8% 9.5% 8.7% 3.0% 1.0% skip:53.5%
x264 [info]: mb B I16..4: 0.1% 0.2% 0.2% B16..8: 14.6% 4.8% 1.6% direct: 1.2% skip:77.3% L0:45.1% L1:49.0% BI: 5.8%
x264 [info]: 8x8 transform intra:39.7% inter:27.0%
x264 [info]: direct mvs spatial:99.9% temporal:0.1%
x264 [info]: coded y,uvDC,uvAC intra: 68.7% 74.9% 69.0% inter: 6.1% 7.1% 5.2%
x264 [info]: i16 v,h,dc,p: 65% 15% 13% 7%
x264 [info]: i8 v,h,dc,ddl,ddr,vr,hd,vl,hu: 12% 11% 26% 7% 8% 7% 8% 8% 12%
x264 [info]: i4 v,h,dc,ddl,ddr,vr,hd,vl,hu: 18% 14% 18% 7% 8% 8% 8% 8% 11%
x264 [info]: i8c dc,h,v,p: 45% 31% 17% 7%
x264 [info]: Weighted P-Frames: Y:0.9% UV:0.8%
x264 [info]: ref P L0: 59.2% 5.6% 12.8% 6.2% 3.7% 3.4% 2.6% 1.8% 1.5% 1.4% 1.4% 0.4% 0.0%
x264 [info]: ref B L0: 66.9% 11.1% 9.3% 4.3% 2.5% 1.9% 1.7% 1.2% 0.8% 0.4%
x264 [info]: ref B L1: 91.0% 9.0%
x264 [info]: kb/s:1910.04
x264 [total]: encoded 74361 frames, 12.87 fps, 1910.04 kb/s, duration 1:36:19.90
Format                                   : MatroskaFormat version                           : Version 4 / Version 2File size                                : 944 MiBDuration                                 : 51mn 41sOverall bit rate                         : 2 552 KbpsEncoded date                             : UTC 2015-04-18 11:19:59Writing application                      : mkvmerge v6.7.0 ('Back to the Ground') 32bit built on Jan  8 2014 15:03:17Writing library                          : libebml v1.3.0 + libmatroska v1.4.1
VideoID : 1Format : AVCFormat/Info : Advanced Video CodecFormat profile : High@L4.1Format settings, CABAC : YesFormat settings, ReFrames : 11 framesCodec ID : V_MPEG4/ISO/AVCDuration : 51mn 41sBit rate : 1 861 KbpsWidth : 1 152 pixelsHeight : 648 pixelsDisplay aspect ratio : 16:9Frame rate mode : ConstantFrame rate : 23.976 fpsColor space : YUVChroma subsampling : 4:2:0Bit depth : 8 bitsScan type : ProgressiveBits/(Pixel*Frame) : 0.104Stream size : 688 MiB (73%)Title : The Flintstones & WWE: Stone Age Smackdown (2015) [rutracker.org]Writing library : x264 core 146 r2538kMod 121396cEncoding settings : cabac=1 / ref=11 / deblock=1:-2:-1 / analyse=0x3:0x133 / me=umh / subme=11 / psy=1 / fade_compensate=0.00 / psy_rd=1.00:0.05 / mixed_ref=1 / me_range=32 / chroma_me=1 / trellis=2 / 8x8dct=1 / cqm=0 / deadzone=21,11 / fast_pskip=0 / chroma_qp_offset=-3 / threads=12 / lookahead_threads=3 / sliced_threads=0 / nr=0 / decimate=1 / interlaced=0 / bluray_compat=0 / constrained_intra=0 / fgo=0 / bframes=12 / b_pyramid=2 / b_adapt=2 / b_bias=0 / direct=3 / weightb=1 / open_gop=0 / weightp=2 / keyint=250 / keyint_min=23 / scenecut=40 / intra_refresh=0 / rc_lookahead=80 / rc=crf / mbtree=0 / crf=18.0000 / qcomp=0.60 / qpmin=0 / qpmax=69 / qpstep=4 / vbv_maxrate=50000 / vbv_bufsize=62500 / crf_max=0.0 / nal_hrd=none / filler=0 / ip_ratio=1.40 / pb_ratio=1.30 / aq=3:0.90Language : EnglishDefault : YesForced : No
Audio #1ID : 2Format : AC-3Format/Info : Audio Coding 3Mode extension : CM (complete main)Format settings, Endianness : BigCodec ID : A_AC3Duration : 51mn 41sBit rate mode : ConstantBit rate : 192 KbpsChannel(s) : 2 channelsChannel positions : Front: L RSampling rate : 48.0 KHzBit depth : 16 bitsCompression mode : LossyStream size : 71.0 MiB (8%)Title : MVOLanguage : RussianDefault : YesForced : No
Audio #2ID : 3Format : AC-3Format/Info : Audio Coding 3Mode extension : CM (complete main)Format settings, Endianness : BigCodec ID : A_AC3Duration : 51mn 41sBit rate mode : ConstantBit rate : 448 KbpsChannel(s) : 6 channelsChannel positions : Front: L C R, Side: L R, LFESampling rate : 48.0 KHzBit depth : 16 bitsCompression mode : LossyStream size : 166 MiB (18%)Title : OriginalLanguage : EnglishDefault : NoForced : No
Text #1ID : 4Format : UTF-8Codec ID : S_TEXT/UTF8Codec ID/Info : UTF-8 Plain TextTitle : FullLanguage : EnglishDefault : NoForced : No
Text #2ID : 5Format : UTF-8Codec ID : S_TEXT/UTF8Codec ID/Info : UTF-8 Plain TextTitle : SDHLanguage : EnglishDefault : NoForced : No
Menu00:00:00.000 : en:00:00:00.00000:09:05.211 : en:00:09:05.21100:19:20.493 : en:00:19:20.49300:32:55.765 : en:00:32:55.76500:41:41.124 : en:00:41:41.12400:49:01.188 : en:00:49:01.188

Скриншоты




_________________
Показать сообщения:    

Текущее время: Сегодня 18:15

Часовой пояс: GMT



Вы не можете начинать темы
Вы не можете отвечать на сообщения
Вы не можете редактировать свои сообщения
Вы не можете удалять свои сообщения
Вы не можете голосовать в опросах
Вы не можете прикреплять файлы к сообщениям
Вы не можете скачивать файлы