Важное объявление!
У Нас Все раздачи мультитрекерные, при нуле пиров в релизах, можете смело вставать на закачку!
 
Автор Сообщение

HUNTER

Стаж:
4 года 4 месяца
Сообщений:
56749

Репутация: 101

[+] [-]
Вне форума [Профиль] [ЛС]

Флетч жив / Fletch Lives
-Страна: США
Жанр: комедия, приключения, семейный
Год выпуска: 1989
Продолжительность: 01:34:54-Перевод 1: Профессиональный (дублированный) 6-й канал
Перевод 2: Профессиональный (двухголосый, закадровый) Universal
Перевод 3: Профессиональный (двухголосый, закадровый) НТВ
Перевод 4: Авторский (одноголосый, закадровый) Михалев
Перевод 5: Авторский (одноголосый, закадровый) Петербуржец
Перевод 6: Одноголосый закадровый
Cубтитры: английские
Оригинальная аудиодорожка: английский-Режиссер: Майкл Ритчи / Michael Ritchie-В ролях: Чеви Чейз, Хэл Холбрук, Джулианна Филлипс, Р. Ли Эрми, Ричард Либертини, Рэндал «Текс» Кобб, Кливон Литтл, Джордж Уайнер, Патриция Кэлембер, Джеффри Льюис-Описание:
Журналист-хамелеон отправляется на запущенную плантацию, доставшуюся ему в наследство от родной тетушки. Флетч служит настоящим магнитом для всевозможных проблем. Сразу после прибытия новоиспеченного плантатора в новые владения начинаются неприятности.
Сначала отдает богу душу безобидный юрист, затем живущий по соседству адвокат советует репортеру уехать из городка, а обаятельная дамочка, торгующая недвижимостью, делает Флетчу предложение, от которого невозможно отказаться!
Проницательный Флетч начинает распутывать безумную головоломку местных интриг, прибегнув к помощи своего «убойного» арсенала потрясающих перевоплощений!-Сэмпл: Скачать-Тип релиза: WEB-DL 720p
Контейнер: MKV-Видео: 1280x694 (1.85:1); 4 034 Kbps; 23.976 fps; 0.183 bpp
Аудио 1: Russian; AC3; 48.0 KHz; 2ch; 192 Kbps Dub 6-й канал
Аудио 2: Russian; AC3; 48.0 KHz; 2ch; 192 Kbps DVO Universal
Аудио 3: Russian; AC3; 48.0 KHz; 4ch; 320 Kbps DVO НТВ
Аудио 4: Russian; AC3; 48.0 KHz; 2ch; 192 Kbps AVO Михалев
Аудио 5: Russian; AC3; 48.0 KHz; 2ch; 192 Kbps AVO Петербуржец
Аудио 6: Russian; AC3; 48.0 KHz; 2ch; 192 Kbps VO
Аудио 7: English; AAC; 48.0 KHz; 2ch; 160 Kbps

MediaInfo

Format : Matroska
Format version : Version 4 / Version 2
File size : 3.69 GiB
Duration : 1h 34mn
Overall bit rate : 5 572 Kbps
Encoded date : UTC 2015-08-23 13:31:06
Writing application : mkvmerge v8.1.0 ('Psychedelic Postcard') 64bit
Writing library : libebml v1.3.1 + libmatroska v1.4.2
Attachements : poster.jpg
DURATION : 01:34:51.328000000
NUMBER_OF_FRAMES : 177854
NUMBER_OF_BYTES : 136591872
_STATISTICS_WRITING_APP : mkvmerge v8.1.0 ('Psychedelic Postcard') 64bit
_STATISTICS_WRITING_DATE_UTC : 2015-08-23 13:31:06
_STATISTICS_TAGS : BPS DURATION NUMBER_OF_FRAMES NUMBER_OF_BYTES
Video
ID : 1
Format : AVC
Format/Info : Advanced Video Codec
Format profile : High@L3.1
Format settings, CABAC : No
Format settings, ReFrames : 2 frames
Codec ID : V_MPEG4/ISO/AVC
Duration : 1h 34mn
Width : 1 280 pixels
Height : 694 pixels
Display aspect ratio : 1.85:1
Frame rate mode : Constant
Frame rate : 23.976 fps
Color space : YUV
Chroma subsampling : 4:2:0
Bit depth : 8 bits
Scan type : Progressive
Language : English
Default : Yes
Forced : No
Color primaries : BT.709
Transfer characteristics : BT.709
Matrix coefficients : BT.709
Audio #1
ID : 2
Format : AC-3
Format/Info : Audio Coding 3
Mode extension : CM (complete main)
Format settings, Endianness : Big
Codec ID : A_AC3
Duration : 1h 34mn
Bit rate mode : Constant
Bit rate : 192 Kbps
Channel(s) : 2 channels
Channel positions : Front: L R
Sampling rate : 48.0 KHz
Bit depth : 16 bits
Compression mode : Lossy
Stream size : 130 MiB (3%)
Title : Dub
Language : Russian
Default : Yes
Forced : No
Audio #2
ID : 3
Format : AC-3
Format/Info : Audio Coding 3
Mode extension : CM (complete main)
Format settings, Endianness : Big
Codec ID : A_AC3
Duration : 1h 34mn
Bit rate mode : Constant
Bit rate : 192 Kbps
Channel(s) : 2 channels
Channel positions : Front: L R
Sampling rate : 48.0 KHz
Bit depth : 16 bits
Compression mode : Lossy
Stream size : 130 MiB (3%)
Title : DVO Universal
Language : Russian
Default : No
Forced : No
Audio #3
ID : 4
Format : AC-3
Format/Info : Audio Coding 3
Mode extension : CM (complete main)
Format settings, Endianness : Big
Codec ID : A_AC3
Duration : 1h 34mn
Bit rate mode : Constant
Bit rate : 320 Kbps
Channel(s) : 4 channels
Channel positions : Front: L C R, Back: C
Sampling rate : 48.0 KHz
Bit depth : 16 bits
Compression mode : Lossy
Stream size : 217 MiB (6%)
Title : DVO НТВ
Language : Russian
Default : No
Forced : No
Audio #4
ID : 5
Format : AC-3
Format/Info : Audio Coding 3
Mode extension : CM (complete main)
Format settings, Endianness : Big
Codec ID : A_AC3
Duration : 1h 34mn
Bit rate mode : Constant
Bit rate : 192 Kbps
Channel(s) : 2 channels
Channel positions : Front: L R
Sampling rate : 48.0 KHz
Bit depth : 16 bits
Compression mode : Lossy
Stream size : 130 MiB (3%)
Title : AVO Михалев
Language : Russian
Default : No
Forced : No
Audio #5
ID : 6
Format : AC-3
Format/Info : Audio Coding 3
Mode extension : CM (complete main)
Format settings, Endianness : Big
Codec ID : A_AC3
Duration : 1h 34mn
Bit rate mode : Constant
Bit rate : 192 Kbps
Channel(s) : 2 channels
Channel positions : Front: L R
Sampling rate : 48.0 KHz
Bit depth : 16 bits
Compression mode : Lossy
Stream size : 130 MiB (3%)
Title : AVO Петербуржец
Language : Russian
Default : No
Forced : No
Audio #6
ID : 7
Format : AC-3
Format/Info : Audio Coding 3
Mode extension : CM (complete main)
Format settings, Endianness : Big
Codec ID : A_AC3
Duration : 1h 34mn
Bit rate mode : Constant
Bit rate : 192 Kbps
Channel(s) : 2 channels
Channel positions : Front: L R
Sampling rate : 48.0 KHz
Bit depth : 16 bits
Compression mode : Lossy
Stream size : 130 MiB (3%)
Title : VO
Language : Russian
Default : No
Forced : No
Audio #7
ID : 8
Format : AAC
Format/Info : Advanced Audio Codec
Format profile : LC
Codec ID : A_AAC
Duration : 1h 34mn
Channel(s) : 2 channels
Channel positions : Front: L R
Sampling rate : 48.0 KHz
Compression mode : Lossy
Language : English
Default : No
Forced : No
Text
ID : 9
Format : UTF-8
Codec ID : S_TEXT/UTF8
Codec ID/Info : UTF-8 Plain Text
Language : English
Default : No
Forced : No

HDTV vs WEB-DL



Скриншоты


_________________
Показать сообщения:    

Текущее время: Сегодня 05:18

Часовой пояс: GMT



Вы не можете начинать темы
Вы не можете отвечать на сообщения
Вы не можете редактировать свои сообщения
Вы не можете удалять свои сообщения
Вы не можете голосовать в опросах
Вы не можете прикреплять файлы к сообщениям
Вы не можете скачивать файлы