Важное объявление!
У Нас Все раздачи мультитрекерные, при нуле пиров в релизах, можете смело вставать на закачку!
 
Автор Сообщение

HUNTER

Стаж:
4 года 4 месяца
Сообщений:
56790

Репутация: 101

[+] [-]
Вне форума [Профиль] [ЛС]


Фитнесс с Анной Курниковой/Anna Kournikova. Basic Elements: Mein komplettes Fitness-Programm-Год выпуска: 2005
Страна: USA, Россия
Сайт производителя: Отсутствует
Тематика: Фитнесс
Тип материала: Обучающее видео
Продолжительность: 00:52:06
Автор: Анной Курниковой
Язык: Русский
Субтитры: Отсутствует-Описание: Анна Курникова. Наверное, во всем цивилизованном мире нет взрослого человека, кто бы не знал имя этой сверхпопулярной теннисистки, получившей от поклонников ласковое прозвище "русская Барби". В чем секрет ее успехов на корте? - Тяжелый труд и постоянные тренировки, это общеизвестно. Но в чем секрет ее необыкновенной грации и изящества? Как ей удается поддерживать себя в идеальной форме, сохраняя природную красоту и женственность, в то время как другие спортсменки превращаются в мускулистые машины для охоты за рекордами? Эта видеопрограмма даст ответы на все вопросы. Уникальный фитнесс-комплекс от Анны Курниковои - самая горячая сенсация в мире домашнего спорт-видео с тех пор, как Джейн Фонда придумала аэробику!-Качество: DVDRip
Формат: AVI
Видео кодек: DivX
Аудио кодек: MP3
Видео: 640x480 (1.33:1), 25 fps, DivX Codec 6.2.5 ~1741 kbps avg, 0.23 bit/pixel
Аудио: 32 kHz, MPEG Layer 3, 2 ch, ~128.00 kbps avg-

Доп. информация

Представляемые уроки являются уникальной фитнесс-программой, она показывает, что легких упражнений вполне достаточно для улучшения фигуры. Также Вы получите советы Курниковой по правильному питанию для улучшения физической формы.

MediaInfo

Код: copyText_writeLink('this.parentNode.parentNode.nextSibling.nextSibling'); Общее
Полное имя : D:\обуч\fitnes_s_annoj_kurnikovoj\Фитнес с Анной Курниковой - укрепляем мышцы - Anna Kournikova. Basic Elements (DVDRip).avi
Формат : AVI
Формат/Информация : Audio Video Interleave
Размер файла : 700 Мбайт
Продолжительность : 52 м.
Общий поток : 1879 Кбит/сек
Программа кодирования : VirtualDubMod 1.5.10.2 (build 2540/release)
Библиотека кодирования : VirtualDub build 24442/release
Видео
Идентификатор : 0
Формат : MPEG-4 Visual
Параметр BVOP формата : 1
Параметр QPel формата : Нет
Параметр GMC формата : Без точки перехода
Параметр матрицы формата : Default (H.263)
Режим смешивания : Сжатый битовый поток
Идентификатор кодека : DX50
Идентификатор кодека/Подсказка : DivX 5
Продолжительность : 52 м.
Битрейт : 1741 Кбит/сек
Ширина : 640 пикселей
Высота : 480 пикселей
Соотношение сторон : 4:3
Частота кадров : 25,000 кадров/сек
Цветовое пространство : YUV
Субдискретизация насыщенности : 4:2:0
Битовая глубина : 8 бит
Тип развёртки : Прогрессивная
Метод сжатия : С потерями
Бит/(Пиксели*Кадры) : 0.227
Размер потока : 649 Мбайт (93%)
Библиотека кодирования : DivX 6.2.5 (UTC 2006-06-16)
Аудио
Идентификатор : 1
Формат : MPEG Audio
Версия формата : Version 1
Профиль формата : Layer 3
Режим : Joint stereo
Расширение режима : MS Stereo
Идентификатор кодека : 55
Идентификатор кодека/Подсказка : MP3
Продолжительность : 52 м.
Вид битрейта : Постоянный
Битрейт : 128 Кбит/сек
Каналы : 2 канала
Частота : 32,0 КГц
Метод сжатия : С потерями
Размер потока : 47,7 Мбайт (7%)
Выравнивание : Соединение по промежуткам
Продолжительность промежутка : 40 мс. (1,00 видеокадр)
Время предзагрузки промежутка : 504 мс.
Библиотека кодирования : LAME0„S@ЃS‚.

Скриншоты

-

_________________
Показать сообщения:    

Текущее время: Сегодня 09:03

Часовой пояс: GMT



Вы не можете начинать темы
Вы не можете отвечать на сообщения
Вы не можете редактировать свои сообщения
Вы не можете удалять свои сообщения
Вы не можете голосовать в опросах
Вы не можете прикреплять файлы к сообщениям
Вы не можете скачивать файлы