Важное объявление!
У Нас Все раздачи мультитрекерные, при нуле пиров в релизах, можете смело вставать на закачку!
 
Автор Сообщение

HUNTER

Стаж:
4 года 4 месяца
Сообщений:
56829

Репутация: 101

[+] [-]
Вне форума [Профиль] [ЛС]

Финес и Ферб: Покорение второго измерения / Phineas and Ferb the Movie: Across the 2nd Dimension
Страна: США
Жанр: Мультипликация
Продолжительность: 01:16:48
Год выпуска: 2011
Перевод: Профессиональный (дублированный)
Русские субтитры: есть-Режиссёр: Джон Колтон Бэрри, Джим Бернштейн / Jon Colton Barry, Jim Bernstein
Роли озвучивали: Винсент Мартелла, Эшли Тисдейл, Томас Сэнгстер, Кэролайн Ри, Ричард О’Брайэн, Дэн Повенмайр, Джефф «Свомпи» Марш, Элисон Стоунер, Молик Панчоли, Бобби Гейлор-Описание: Худший из всех страхов утконоса Пэрри сбывается, когда Финес и Фёрб узнают, что он на самом деле Секретный агент Пи, но как оказалось это ничто по сравнению с поездкой во второе измерение, где доктор Фуфелшмертц оказался успешен в своих злодеяниях.-Релиз от - -Качество: BDRip 1080p
Формат: MKV
Видео: Видео: AVC, 1920x1080 (16:9), 23.976 fps, 2 672 Kbps (0.054 bit/pixel)
Аудио 1: AC-3, 48.0 KHz, 2 ch, 192 Kbps, CBR (Russian)
Аудио 2: AC-3, 48.0 KHz, 2 ch, 192 Kbps, CBR (Ukrainian)
Аудио 3: AC-3, 48.0 KHz, 6 ch, 384 Kbps, CBR (English)
Субтитры: Russian, English
Семпл: Забираем тут
Подробные технические данные
ОбщееУникальный идентификатор : 173360034861797444495184439022905926253 (0x826BEDA07BCBD7B18A77548237E3226D)Полное имя : F:\Phineas and Ferb the Movie Across the 2nd Dimension 2011 WEB-DL 1080p.mkvФормат : MatroskaВерсия формата : Version 4 / Version 2Размер файла : 1,88 ГбайтПродолжительность : 1 ч. 16 м.Общий поток : 3509 Кбит/секДата кодирования : UTC 2014-06-04 13:54:35Программа кодирования : mkvmerge v6.9.1 ('Blue Panther') 32bit built on Apr 18 2014 18:15:44Библиотека кодирования : libebml v1.3.0 + libmatroska v1.4.1
ВидеоИдентификатор : 1Формат : AVCФормат/Информация : Advanced Video CodecПрофиль формата : High@L4.0Параметр CABAC формата : ДаПараметр ReFrames формата : 4 кадраИдентификатор кодека : V_MPEG4/ISO/AVCПродолжительность : 1 ч. 16 м.Битрейт : 2672 Кбит/секШирина : 1920 пикселейВысота : 1080 пикселейСоотношение сторон : 16:9Режим частоты кадров : ПостоянныйЧастота кадров : 23,976 кадра/секЦветовое пространство : YUVСубдискретизация насыщенности : 4:2:0Битовая глубина : 8 битТип развёртки : ПрогрессивнаяБит/(Пиксели*Кадры) : 0.054Размер потока : 1,43 Гбайт (76%)Библиотека кодирования : x264 core 122Настройки программы : cabac=1 / ref=4 / deblock=1:1:1 / analyse=0x3:0x113 / me=umh / subme=7 / psy=1 / psy_rd=0.40:0.00 / mixed_ref=1 / me_range=16 / chroma_me=1 / trellis=1 / 8x8dct=1 / cqm=0 / deadzone=21,11 / fast_pskip=1 / chroma_qp_offset=-2 / threads=12 / sliced_threads=0 / nr=0 / decimate=1 / interlaced=0 / bluray_compat=0 / constrained_intra=0 / bframes=6 / b_pyramid=2 / b_adapt=2 / b_bias=0 / direct=1 / weightb=1 / open_gop=0 / weightp=2 / keyint=240 / keyint_min=24 / scenecut=40 / intra_refresh=0 / rc_lookahead=50 / rc=crf / mbtree=1 / crf=19.0 / qcomp=0.60 / qpmin=3 / qpmax=69 / qpstep=4 / ip_ratio=1.40 / aq=1:0.60Язык : EnglishDefault : ДаForced : НетОсновные цвета : BT.709Характеристики трансфера : BT.709Коэффициенты матрицы : BT.709
Аудио #1Идентификатор : 2Формат : AC-3Формат/Информация : Audio Coding 3Расширение режима : CM (complete main)Параметр Endianness формата : BigИдентификатор кодека : A_AC3Продолжительность : 1 ч. 16 м.Вид битрейта : ПостоянныйБитрейт : 192 Кбит/секКаналы : 2 каналаРасположение каналов : Front: L RЧастота : 48,0 КГцБитовая глубина : 16 битМетод сжатия : С потерямиРазмер потока : 105 Мбайт (5%)Язык : RussianDefault : ДаForced : Нет
Аудио #2Идентификатор : 3Формат : AC-3Формат/Информация : Audio Coding 3Расширение режима : CM (complete main)Параметр Endianness формата : BigИдентификатор кодека : A_AC3Продолжительность : 1 ч. 16 м.Вид битрейта : ПостоянныйБитрейт : 192 Кбит/секКаналы : 2 каналаРасположение каналов : Front: L RЧастота : 48,0 КГцБитовая глубина : 16 битМетод сжатия : С потерямиРазмер потока : 105 Мбайт (5%)Язык : UkrainianDefault : НетForced : Нет
Аудио #3Идентификатор : 4Формат : AC-3Формат/Информация : Audio Coding 3Расширение режима : CM (complete main)Параметр Endianness формата : BigИдентификатор кодека : A_AC3Продолжительность : 1 ч. 16 м.Вид битрейта : ПостоянныйБитрейт : 384 Кбит/секКаналы : 6 каналовРасположение каналов : Front: L C R, Side: L R, LFEЧастота : 48,0 КГцБитовая глубина : 16 битМетод сжатия : С потерямиЗадержка видео : 24 мс.Размер потока : 211 Мбайт (11%)Язык : EnglishDefault : НетForced : Нет
Текст #1Идентификатор : 5Формат : UTF-8Идентификатор кодека : S_TEXT/UTF8Идентификатор кодека/Информация : UTF-8 Plain TextЯзык : RussianDefault : НетForced : Нет
Текст #2Идентификатор : 6Формат : UTF-8Идентификатор кодека : S_TEXT/UTF8Идентификатор кодека/Информация : UTF-8 Plain TextЯзык : EnglishDefault : НетForced : Нет
Меню00:00:00.000 : en:Chapter 0000:04:09.540 : en:Chapter 0100:08:12.283 : en:Chapter 0200:15:01.609 : en:Chapter 0300:26:21.079 : en:Chapter 0400:33:51.779 : en:Chapter 0500:39:21.108 : en:Chapter 0600:46:04.803 : en:Chapter 0700:52:42.409 : en:Chapter 0800:58:49.317 : en:Chapter 0901:05:22.293 : en:Chapter 1001:14:20.581 : en:Chapter 11
Скриншоты

_________________
Показать сообщения:    

Текущее время: Сегодня 16:13

Часовой пояс: GMT



Вы не можете начинать темы
Вы не можете отвечать на сообщения
Вы не можете редактировать свои сообщения
Вы не можете удалять свои сообщения
Вы не можете голосовать в опросах
Вы не можете прикреплять файлы к сообщениям
Вы не можете скачивать файлы