Важное объявление!
У Нас Все раздачи мультитрекерные, при нуле пиров в релизах, можете смело вставать на закачку!
 
Автор Сообщение

HUNTER

Стаж:
4 года 4 месяца
Сообщений:
56765

Репутация: 101

[+] [-]
Вне форума [Профиль] [ЛС]

Финес и Ферб: Ночь живых аптекарей / Phineas and Ferb: Night of The Living Pharmacistss
Год выпуска: 2014
Страна: США, Disney Television Animation
Жанр: мультфильм, детский, семейный
Продолжительность: 00:42:38
Перевод: Профессиональный (дублированный) Невафильм
Русские субтитры: нет
Режиссёр: Сью Перротто, Роберт Эф Хьюз. / Sue Perrotto, Robert F. Hughes
Описание: на этот раз злодей Фуфелшмерц заходит слишком далеко! Под покровом ночи городок наводняют зомби, похожие на коварного доктора, как две капли воды. Каждый, кто прикасается к монстру в аптекарском халате, моментально превращается в его клона! Бесстрашные братья Финес и Ферб, агент Пи и их друзья должны немедленно вмешаться, пока еще не все мирные жители потеряли человеческий облик...
Доп. информация: Запись (захват) спутниковой трансляции канала "Дисней". Конечные титры немного ускорены.
Релиз группы:
Семпл: https://yadi.sk/i/IJ6OODY2cQucr
Качество видео: DVB
Формат видео: MPEG-TS
Видео: MPEG4 Video (H264), 720x576@785x576 (4:3), анаморф, 25 fps, 2200 kbps
Аудио: MPEG Audio, 2 сh, 48 kHz, 192 kbps

MediaInfo

General
ID : 1 (0x1)
Complete name : C:\Финес и Ферб. Ночь живых аптекарей. (2014)_DVB by SLuMeP.ts
Format : MPEG-TS
File size : 782 MiB
Duration : 42mn 38s
Overall bit rate mode : Variable
Overall bit rate : 2 563 Kbps
Video
ID : 38 (0x26)
Menu ID : 1 (0x1)
Format : AVC
Format/Info : Advanced Video Codec
Format profile : Main@L3.0
Format settings, CABAC : Yes
Format settings, ReFrames : 4 frames
Codec ID : 27
Duration : 42mn 38s
Bit rate : 2 242 Kbps
Width : 720 pixels
Height : 576 pixels
Display aspect ratio : 4:3
Frame rate : 25.000 fps
Standard : PAL
Color space : YUV
Chroma subsampling : 4:2:0
Bit depth : 8 bits
Scan type : MBAFF
Bits/(Pixel*Frame) : 0.216
Stream size : 684 MiB (87%)
Color primaries : BT.601 PAL
Transfer characteristics : BT.470 System B, BT.470 System G
Matrix coefficients : BT.601
Audio
ID : 37 (0x25)
Menu ID : 1 (0x1)
Format : MPEG Audio
Format version : Version 1
Format profile : Layer 2
Codec ID : 3
Duration : 42mn 38s
Bit rate mode : Constant
Bit rate : 192 Kbps
Channel(s) : 2 channels
Sampling rate : 48.0 KHz
Compression mode : Lossy
Stream size : 58.6 MiB (7%)
Language : English

Скриншоты



_________________
Показать сообщения:    

Текущее время: Сегодня 01:25

Часовой пояс: GMT



Вы не можете начинать темы
Вы не можете отвечать на сообщения
Вы не можете редактировать свои сообщения
Вы не можете удалять свои сообщения
Вы не можете голосовать в опросах
Вы не можете прикреплять файлы к сообщениям
Вы не можете скачивать файлы