Важное объявление!
У Нас Все раздачи мультитрекерные, при нуле пиров в релизах, можете смело вставать на закачку!
 
Автор Сообщение

HUNTER

Стаж:
4 года 4 месяца
Сообщений:
56772

Репутация: 101

[+] [-]
Вне форума [Профиль] [ЛС]

Фильмы Ларри Хона: Каркасные Полы и Лестницы, Каркасные Стены, Каркасные Крыши / Larry Haun: Framing Floors and Stairs, Framing Walls, Framing Roofs
Страна: США
Тематика: Строительство домов из деревянного каркаса
Тип раздаваемого материала: Видеоурок
Продолжительность: 1:01:05 / 1:08:49 / 0:53:03
Год выпуска: 1992
Язык: Русский + Английский
Перевод: Одноголосый закадровый
Описание: Снятая в средине 90-х, американским популяризатором Лари Хоном, трилогия: "Полы и лестницы", "Стены" и "Крыши". Это самая известная серия фильмов, посвященная каркасному домостроению своими руками.
Данные фильмы являются приложением к книге написанной Лари Хоном "The very efficient carpenter" / "Эффективный плотник".
Упомянутая книга и фильмы (в оригинале на англ.яз.) имеются на трекере.
Вашему вниманию представляется версия с переводом выполненная участником крупнейшего Российского форума самостройщиков ФорумХаус™
Примечания. Терминология. Интересные замечания:
Примечание:
По поводу перевода были высказаны следующие мысли...
Американские COD ы (их обязательные правила) естественно используют дюймовые величины. И размер 50*150, озвучиваемый переводчиком, в действительности 2*6 дюйма. Но это номинальный размер сырой доски после распила, а из сырой доски американцы не строят, кодекс запрещает.
Строить у них положено из сухой доски (специально высушенной). При этом влажность доски опускается ниже чем естественная сушка (в последующем она уже не способна набрать ее, за исключением длительного вымачивания). Сушеная же доска прочнее чем ЕВ (естественной влажности).
После сушки и острожки реальный размер доски 1,5 на 5,5 дюймов, т. е. в метрической системе это 38 на 140 мм. Но для обозначения сечения доски американцы (вот чудаки) используют номинальный размер сырой доски, а не реальный размер сухой строганной доски. Вот такой вот нюанс. Это косвенно подтверждается таблицей 7-1 нашего СП 31-105-2002, в которой минимальное сечение стойки либо 38х38 мм (2х2 дюйма), либо 38х89 (2х4), либо 38х140 (2х6) и т.д.
У нас же нередко выбор сечений ПМ (пиломатериала) затруднителен и автор принял простое решение - использовать размеры сечений наиболее широко встречающихся и используемых ПМ. Причем у нас с сушеными строительными ПМ часто плохо и с наличием и с ценами.
--------------------------
Есть мнение, что копаться в размерах досок - излишне. Фильмы эти по-сути являются ознакомительными и демонстрационными. Библией для нас их сделал информационный вакуум и незнание языков. Человек, который решит ознакомиться с методикой каркасного домостроения при помощи таких переводов - ознакомится с ней. Захочет реализовать на практике - о многом спросит, прочитает и узнает. Фильмы на этой стадии станут пособием не что и из чего делать, а КАК примерно надо делать. Зритель с помощью фильмов получает возможность психологически подготовиться к стройке, проникнуться уверенностью..путём возможности мысленной визуализации тех процессов, что ему предстоят.
Кажется, что Ларри говорит не столько из чего строить, сколько пытается внедрить в умы, что каркасник - это не бином Ньютона, это реально можно сделать самому, и что нужно стараться рационализировать процессы на стройке (этому даже больше внимания уделяется). Что эффективней разложить так, взять такие инструменты, размечать так, пилить так. Тайм-менеджмент, опт.
В общем значимость этих миллиметров для ТЕМЫ невелика.
Еще по терминологии...
В соответствие с СП 31-105-2002
Балки, на которые опирается пол первого этажа (100х150) называются прогоны
Лежни - опорные доски
лаги - балки
обвязная - обвязочная
подъем лестницы - подступенок
Лаги - нужно обратить внимание на то, что в фильме речь идет и о балках, и о лагах. В переводе и то и другое называлось лагами.
С данными мыслями и др. обсуждением Вы можете ознакомиться на ФорумХаус, поиск поможет его найти.
Благодарим за перевод Justin с ФорумХаус™
За качественное видео ко всем трем фильмам благодарим boksito с rutracker.org
Знакомьтесь, изучайте и стройтесь...
Качество: DVD-Remux
Исходное DVD видео и английское аудио взято отсюда и преобразовано с помощью программы MakeMKV в матрёшку. Русское аудио изъято отсюда с помощью ffmpeg. Ничего не пересжималось. Собрано с помощью Mkvmerge 5.8.0. Сохранено разбиение на главы.
Формат: MKV
Видео кодек: MPEG2
Аудио кодек: MP2
Видео: Video: MPEG2 Video 720x480 (4:3) 29.97fps [V: English [eng] (mpeg2 main, yuv420p, 720x480)]
Аудио: Audio: MPEG Audio 48000Hz stereo 128kbps [A: Russian [rus] (mp2, 48000 Hz, stereo, 128 kb/s) [default]]
Аудио 2: Audio: Dolby AC3 48000Hz stereo 224kbps [A: Stereo [eng] (ac3, 48000 Hz, stereo, 224 kb/s)]

Скриншоты

Mediainfo

General
Unique ID : 188347654487316946771588741027759702658 (0x8DB270537120D7FC8875F107D1BCC282)
Complete name : X:\Перекачка\Larry Hon DVD-Remux rus\1 Каркасные Полы и Лестницы перевод Framing_Floors_and_Stairs.mkv
Format : Matroska
Format version : Version 2
File size : 2.92 GiB
Duration : 1h 1mn
Overall bit rate : 6 854 Kbps
Encoded date : UTC 2014-09-27 16:51:54
Writing application : mkvmerge v5.8.0 ('No Sleep / Pillow') built on Sep 2 2012 15:37:04
Writing library : libebml v1.2.3 + libmatroska v1.3.0
Video
ID : 1
Format : MPEG Video
Format version : Version 2
Format profile : Main@Main
Format settings, BVOP : No
Format settings, Matrix : Default
Codec ID : V_MPEG2
Codec ID/Info : MPEG 1 or 2 Video
Duration : 1h 1mn
Bit rate : 6 365 Kbps
Maximum bit rate : 6 500 Kbps
Width : 720 pixels
Height : 480 pixels
Display aspect ratio : 4:3
Frame rate mode : Constant
Frame rate : 29.970 fps
Standard : NTSC
Color space : YUV
Chroma subsampling : 4:2:0
Bit depth : 8 bits
Scan type : Interlaced
Scan order : Top Field First
Compression mode : Lossy
Bits/(Pixel*Frame) : 0.615
Time code of first frame : 01:00:30:12
Time code source : Group of pictures header
Stream size : 2.72 GiB (93%)
Language : English
Default : No
Forced : No
Color primaries : BT.601 NTSC
Transfer characteristics : BT.601
Matrix coefficients : BT.601
Audio #1
ID : 2
Format : MPEG Audio
Format version : Version 1
Format profile : Layer 2
Codec ID : A_MPEG/L2
Codec ID/Hint : MP2
Duration : 1h 1mn
Bit rate mode : Constant
Bit rate : 128 Kbps
Channel(s) : 2 channels
Sampling rate : 48.0 KHz
Compression mode : Lossy
Stream size : 55.9 MiB (2%)
Language : Russian
Default : Yes
Forced : No
Audio #2
ID : 3
Format : AC-3
Format/Info : Audio Coding 3
Mode extension : CM (complete main)
Format settings, Endianness : Big
Codec ID : A_AC3
Duration : 1h 1mn
Bit rate mode : Constant
Bit rate : 224 Kbps
Channel(s) : 2 channels
Channel positions : Front: L R
Sampling rate : 48.0 KHz
Bit depth : 16 bits
Compression mode : Lossy
Stream size : 97.9 MiB (3%)
Title : Stereo
Language : English
Default : No
Forced : No
Menu
00:00:00.000 : en:Chapter 01
00:02:18.671 : en:Chapter 02
00:04:15.255 : en:Chapter 03
00:09:09.181 : en:Chapter 04
00:16:33.225 : en:Chapter 05
00:19:57.129 : en:Chapter 06
00:29:11.850 : en:Chapter 07
00:34:47.652 : en:Chapter 08
00:43:28.772 : en:Chapter 09
00:46:15.105 : en:Chapter 10
00:48:15.559 : en:Chapter 11
01:00:33.496 : en:Chapter 12
Сэмпл: http://multi-up.com/1002110
Доп. информация: Делал для себя, но решил выложить на рутреккер, дабы не потерялось. Проверено МPC-HC 64 версия 1.7.5. Если возникают проблемы с просмотром на весь экран (затыкание аудио, рывки видео) включите галку в настройках плеера (вид/настройки/вывод/полноэкранный диркет 3D).
Внимание! В МPC-HC 64 версии 1.7.6 включение галки полноэкранный диркет 3D приводит к зависанию ПК.
Раздаю нерегулярно, но на высокой скорости.

_________________
Показать сообщения:    

Текущее время: Сегодня 08:31

Часовой пояс: GMT



Вы не можете начинать темы
Вы не можете отвечать на сообщения
Вы не можете редактировать свои сообщения
Вы не можете удалять свои сообщения
Вы не можете голосовать в опросах
Вы не можете прикреплять файлы к сообщениям
Вы не можете скачивать файлы