Важное объявление!
У Нас Все раздачи мультитрекерные, при нуле пиров в релизах, можете смело вставать на закачку!
 
Автор Сообщение

HUNTER

Стаж:
4 года 4 месяца
Сообщений:
56822

Репутация: 101

[+] [-]
Вне форума [Профиль] [ЛС]

Филомена / Philomena-
Год выпуска: 2013
Выпущено: Великобритания, США, Франция
Жанр: драма, комедия
Продолжительность: 01:37:40
Перевод: Профессиональный (полное дублирование)
Оригинальная звуковая дорожка: English
Субтитры: Russian, English-Режиссер: Стивен Фрирз / Stephen Frears
В ролях: Джуди Денч, Стив Куган, Софи Кеннеди Кларк, Мэр Уиннингхэм, Барбара Джеффорд, Рут МакКейб, Питер Хэрман, Шон Махон, Анна Максвелл Мартин, Мишель Фэйрли
О фильме: Юная ирландка Филомена родила сына, будучи подростком, и её, как «падшую», отправили на «перевоспитание» в монастырь, а младенца отдали в усыновление в американскую семью. В монастыре Филомена подвергалась неисчислимым унижениям. Затем ей удалось вырваться оттуда, и она прожила достойную жизнь, но все эти годы пыталась безуспешно найти своего сына. Её историей заинтересовался отзывчивый человек Мартин Сиксмит — опытный журналист, занимающийся темой зловещей роли церкви в многочисленных сломанных судьбах…
SbR!
Релиз:
Источник: Philomena 2013 1080p Blu-ray AVC DTS-HD MA 5.1-PCH
Формат: MKV
Видео: AVC, 1280x694 (16:9), 24.000 fps, 8 300 Kbps (0.389 bit/pixel)
Аудио #01: Russian: 48 kHz, DTS, 3/2 (L,C,R,l,r) + LFE ch, ~1509.00 kbps avg |Дубляж, Blu-Ray|
Аудио #02: English: 48 kHz, DTS, 3/2 (L,C,R,l,r) + LFE ch, ~1509.00 kbps avg
Аудио #03: English: AAC LC, 48.0 KHz, 2 ch, 109 kbps |Commentary with Steve Coogan and Jeff Pope|
Семпл-

Source vs Encode





-

mInfo


Формат : Matroska
Версия формата : Version 2
Размер файла : 7,80 Гбайт
Продолжительность : 1 ч. 37 м.
Общий поток : 11,4 Мбит/сек
Название фильма : Philomena (2013) - Release for HDCLUB
Дата кодирования : UTC 2014-03-31 12:53:19
Программа кодирования : mkvmerge v5.7.0 ('The Whirlwind') built on Jul 8 2012 20:08:51
Библиотека кодирования : libebml v1.2.3 + libmatroska v1.3.0
Видео
Идентификатор : 1
Формат : AVC
Формат/Информация : Advanced Video Codec
Профиль формата : High@L4.1
Параметр CABAC формата : Да
Параметр ReFrames формата : 9 кадров
Идентификатор кодека : V_MPEG4/ISO/AVC
Продолжительность : 1 ч. 37 м.
Номинальный битрейт : 8300 Кбит/сек
Ширина : 1280 пикселей
Высота : 694 пикселя
Соотношение сторон : 1,85:1
Соотношение сторон в оригинале : 1,85:1
Режим частоты кадров : Постоянный
Частота кадров : 24,000 кадра/сек
Цветовое пространство : YUV
Субдискретизация насыщенности : 4:2:0
Битовая глубина : 8 бит
Тип развёртки : Прогрессивная
Бит/(Пиксели*Кадры) : 0.389
Библиотека кодирования : x264 core 142 r2409+42 04be48a tMod [8-bit@all X86_64]
Настройки программы : cabac=1 / ref=9 / deblock=1:-3:-3 / analyse=0x3:0x133 / me=umh / subme=11 / psy=1 / fade_compensate=0.00 / psy_rd=1.00:0.00 / mixed_ref=1 / me_range=48 / chroma_me=1 / trellis=2 / 8x8dct=1 / cqm=0 / deadzone=21,11 / fast_pskip=0 / chroma_qp_offset=-2 / threads=12 / lookahead_threads=3 / sliced_threads=0 / nr=0 / decimate=0 / interlaced=0 / bluray_compat=0 / constrained_intra=0 / fgo=0 / bframes=10 / b_pyramid=2 / b_adapt=2 / b_bias=0 / direct=3 / weightb=1 / open_gop=0 / weightp=2 / keyint=250 / keyint_min=24 / scenecut=40 / intra_refresh=0 / rc=2pass / mbtree=0 / bitrate=8300 / ratetol=1.0 / qcomp=0.70 / qpmin=0:0:0 / qpmax=69:69:69 / qpstep=4 / cplxblur=20.0 / qblur=0.5 / ip_ratio=1.30 / pb_ratio=1.20 / aq=1:0.90 / aq-sensitivity=10.00 / aq-factor=1.00:1.00:1.00 / aq2=0 / aq3=0 / zones=24,311,b=1.7/586,858,b=1.9/1044,1120,b=1.7/10023,10109,q=10/10795,10879,q=10/12628,15671,b=1.15
Язык : English
Default : Да
Forced : Нет
Аудио #1
Идентификатор : 2
Формат : DTS
Формат/Информация : Digital Theater Systems
Режим : 16
Параметр Endianness формата : Big
Идентификатор кодека : A_DTS
Продолжительность : 1 ч. 37 м.
Вид битрейта : Постоянный
Битрейт : 1509 Кбит/сек
Каналы : 6 каналов
Расположение каналов : Front: L C R, Side: L R, LFE
Частота : 48,0 КГц
Битовая глубина : 24 бит
Метод сжатия : С потерями
Размер потока : 1,03 Гбайт (13%)
Заголовок : |Дубляж, BluRay|
Язык : Russian
Default : Да
Forced : Нет
Аудио #2
Идентификатор : 3
Формат : DTS
Формат/Информация : Digital Theater Systems
Режим : 16
Параметр Endianness формата : Big
Идентификатор кодека : A_DTS
Продолжительность : 1 ч. 37 м.
Вид битрейта : Постоянный
Битрейт : 1509 Кбит/сек
Каналы : 6 каналов
Расположение каналов : Front: L C R, Side: L R, LFE
Частота : 48,0 КГц
Битовая глубина : 24 бит
Метод сжатия : С потерями
Размер потока : 1,03 Гбайт (13%)
Язык : English
Default : Нет
Forced : Нет
Аудио #3
Идентификатор : 4
Формат : AAC
Формат/Информация : Advanced Audio Codec
Профиль формата : LC
Идентификатор кодека : A_AAC
Продолжительность : 1 ч. 37 м.
Каналы : 2 канала
Расположение каналов : Front: L R
Частота : 48,0 КГц
Метод сжатия : С потерями
Задержка видео : 9 мс.
Заголовок : Commentary with Steve Coogan and Jeff Pope
Язык : English
Default : Нет
Forced : Нет
Текст #1
Идентификатор : 5
Формат : UTF-8
Идентификатор кодека : S_TEXT/UTF8
Идентификатор кодека/Информация : UTF-8 Plain Text
Язык : Russian
Default : Нет
Forced : Нет
Текст #2
Идентификатор : 6
Формат : UTF-8
Идентификатор кодека : S_TEXT/UTF8
Идентификатор кодека/Информация : UTF-8 Plain Text
Язык : English
Default : Нет
Forced : Нет
Меню
00:00:00.000 : en:00:00:00.000
00:03:31.125 : en:00:03:31.125
00:11:02.333 : en:00:11:02.333
00:21:31.500 : en:00:21:31.500
00:27:02.167 : en:00:27:02.167
00:32:30.667 : en:00:32:30.667
00:35:58.833 : en:00:35:58.833
00:43:30.875 : en:00:43:30.875
00:49:11.458 : en:00:49:11.458
00:56:54.458 : en:00:56:54.458
01:01:22.458 : en:01:01:22.458
01:05:04.833 : en:01:05:04.833
01:10:30.750 : en:01:10:30.750
01:16:36.875 : en:01:16:36.875
01:22:44.833 : en:01:22:44.833
01:32:59.042 : en:01:32:59.042
-

_________________
Показать сообщения:    

Текущее время: Сегодня 22:05

Часовой пояс: GMT



Вы не можете начинать темы
Вы не можете отвечать на сообщения
Вы не можете редактировать свои сообщения
Вы не можете удалять свои сообщения
Вы не можете голосовать в опросах
Вы не можете прикреплять файлы к сообщениям
Вы не можете скачивать файлы