Важное объявление!
У Нас Все раздачи мультитрекерные, при нуле пиров в релизах, можете смело вставать на закачку!
 
Автор Сообщение

mihis

[Профиль] [ЛС]

Филадельфия / Philadelphia«No one would take on his case... until one man was willing to take on the system.»
Год выпуска: 1993
Страна: США / Clinica Estetico Ltd., TriStar Pictures
Жанр: Драма
Продолжительность: 02:05:30
Перевод: Профессиональный (многоголосый, закадровый) + Оригинал
Субтитры: Русские
Режиссер: Джонатан Демме
В ролях: Том Хэнкс, Дензел Вашингтон, Антонио Бандерас, Джейсон Робардс, Мэри Стинберген, Джоэнн Вудворд, Чарльз Нэпьер, Роберт Риджли, Брэдли Уитфорд, Рон Вотер...
Описание: Два главных героя не похожи как белое и черное — их разделяет цвет кожи, общественное положение, сексуальная ориентация, смертельная болезнь. Но каждый — служит закону и готов бороться против любой несправедливости. Том Хэнкс и Дэнзел Вашингтон в драматической истории смертельно больного, но не отчаявшегося человека. Человека, который верил в справедливость.

Качество: BDRip-AVC
Формат: MKV
Видео кодек: H.264
Аудио кодек: AC3
Видео: 1024x552 (1.85:1), 23.976 fps, H264 ~ 1842 kbps avg, 0.136 bit/pixel
Аудио #1: 48 kHz, АС3 2 ch, 192 kbps Rus
Аудио #2: 48 kHz, АС3 5 ch, 448 kbps Eng

Награды

Британская академия, 1995 год
Номинации (1):
Лучший оригинальный сценарий
Оскар, 1994 год
Победитель (2):
Лучшая мужская роль (Том Хэнкс)
Лучшая песня — «Streets of Philadelphia»
Номинации (3):
Лучший сценарий
Лучший грим
Лучшая песня — «Philadelphia»
Золотой глобус, 1994 год
Победитель (2):
Лучшая мужская роль (драма) (Том Хэнкс)
Лучшая песня — «Streets of Philadelphia»
Номинации (1):
Лучший сценарий
Премия канала «MTV», 1994 год
Победитель (1):
Лучшая мужская роль (Том Хэнкс)
Номинации (3):
Лучший фильм
Лучшая песня — «Streets of Philadelphia»
Лучший экранный дуэт (Том Хэнкс, Дензел Вашингтон)
Берлинский кинофестиваль, 1994 год
Победитель (1):
Серебряный Медведь за лучшую мужскую роль (Том Хэнкс)
Номинации (1):
Золотой Медведь

MediaInfo

Общее
Полное имя : Filadelfiya.1993.D.BDRip_[Youtracker]_by_avproh.mkv
Формат : Matroska
Версия формата : Version 4 / Version 2
Размер файла : 2,18 Гбайт
Продолжительность : 2 ч. 5 м.
Общий поток : 2484 Кбит/сек
Дата кодирования : UTC 2013-06-01 19:39:52
Программа кодирования : mkvmerge v6.1.0 ('Old Devil') built on Mar 2 2013 14:32:37
Библиотека кодирования : libebml v1.3.0 + libmatroska v1.4.0
Видео
Идентификатор : 1
Формат : AVC
Формат/Информация : Advanced Video Codec
Профиль формата : High@L4.1
Параметр CABAC формата : Да
Параметр ReFrames формата : 11 кадров
Идентификатор кодека : V_MPEG4/ISO/AVC
Продолжительность : 2 ч. 5 м.
Битрейт : 1842 Кбит/сек
Ширина : 1024 пикселя
Высота : 552 пикселя
Соотношение сторон : 1,85:1
Режим частоты кадров : Постоянный
Частота кадров : 23,976 кадра/сек
Цветовое пространство : YUV
Субдискретизация насыщенности : 4:2:0
Битовая глубина : 8 бит
Тип развёртки : Прогрессивная
Бит/(Пиксели*Кадры) : 0.136
Размер потока : 1,57 Гбайт (72%)
Библиотека кодирования : x264 core 130 r2273 b3065e6
Настройки программы : cabac=1 / ref=11 / deblock=1:-2:-1 / analyse=0x3:0x113 / me=umh / subme=9 / psy=1 / psy_rd=1.00:0.10 / mixed_ref=1 / me_range=32 / chroma_me=1 / trellis=2 / 8x8dct=1 / cqm=0 / deadzone=21,11 / fast_pskip=1 / chroma_qp_offset=-3 / threads=9 / lookahead_threads=2 / sliced_threads=0 / nr=0 / decimate=1 / interlaced=0 / bluray_compat=0 / constrained_intra=0 / bframes=10 / b_pyramid=2 / b_adapt=2 / b_bias=0 / direct=3 / weightb=1 / open_gop=0 / weightp=2 / keyint=240 / keyint_min=23 / scenecut=40 / intra_refresh=0 / rc_lookahead=80 / rc=2pass / mbtree=1 / bitrate=1842 / ratetol=1.0 / qcomp=0.60 / qpmin=0 / qpmax=69 / qpstep=4 / cplxblur=20.0 / qblur=0.5 / ip_ratio=1.40 / aq=2:0.90
Язык : English
Default : Да
Forced : Нет
Аудио #1
Идентификатор : 2
Формат : AC-3
Формат/Информация : Audio Coding 3
Профиль формата : Dolby Digital
Расширение режима : CM (complete main)
Параметр Endianness формата : Big
Идентификатор кодека : A_AC3
Продолжительность : 2 ч. 5 м.
Вид битрейта : Постоянный
Битрейт : 192 Кбит/сек
Каналы : 2 канала
Расположение каналов : Front: L R
Частота : 48,0 КГц
Битовая глубина : 16 бит
Метод сжатия : С потерями
Размер потока : 172 Мбайт (8%)
Язык : Russian
Default : Да
Forced : Нет
Аудио #2
Идентификатор : 3
Формат : AC-3
Формат/Информация : Audio Coding 3
Расширение режима : CM (complete main)
Параметр Endianness формата : Big
Идентификатор кодека : A_AC3
Продолжительность : 2 ч. 5 м.
Вид битрейта : Постоянный
Битрейт : 448 Кбит/сек
Каналы : 6 каналов
Расположение каналов : Front: L C R, Side: L R, LFE
Частота : 48,0 КГц
Битовая глубина : 16 бит
Метод сжатия : С потерями
Размер потока : 402 Мбайт (18%)
Язык : English
Default : Нет
Forced : Нет
Текст
Идентификатор : 4
Формат : UTF-8
Идентификатор кодека : S_TEXT/UTF8
Идентификатор кодека/Информация : UTF-8 Plain Text
Язык : Russian
Default : Нет
Forced : Нет
 
Показать сообщения:    

Текущее время: Сегодня 10:56

Часовой пояс: GMT



Вы не можете начинать темы
Вы не можете отвечать на сообщения
Вы не можете редактировать свои сообщения
Вы не можете удалять свои сообщения
Вы не можете голосовать в опросах
Вы не можете прикреплять файлы к сообщениям
Вы не можете скачивать файлы