Важное объявление!
У Нас Все раздачи мультитрекерные, при нуле пиров в релизах, можете смело вставать на закачку!
 
Автор Сообщение

HUNTER

Стаж:
4 года 4 месяца
Сообщений:
56848

Репутация: 101

[+] [-]
Вне форума [Профиль] [ЛС]

| Все релизы мультфильма || BDRip 720p, 3.36 GB |- P R E S E N T SФеи: Тайна зимнего леса / Secret of the Wings-
Страна: США
Жанр: мультфильм, фэнтези, приключения, семейный
Продолжительность: 01:15:04
Год выпуска: 2012
Перевод: Профессиональный (полное дублирование)
Субтитры: есть-Режиссёр: Роберт Ганнавей, Пегги Холмс / Robert Gannaway, Peggy Holmes
Роли озвучивали: Тимоти Далтон, Люси Хейл, Меган Хилти, Анжелика Хьюстон, Мэтт Лантер, Джесси МакКартни, Мэй Уитман, Люси Лью, Рэйвен, Дебби Райан, Памела Адлон, Ди Брэдли Бейкер, Анджела Бартис, Джефф Беннетт...
Роли дублировали: Юлия Довганишина, Ирина Рахманова, Оксана Фёдорова, Анна Бегунова, Ольга Арнтгольц, Елена Великанова, Анастасия Цветаева, Екатерина Хлыстова и др.- | | -Описание: Динь-Динь и ее подруги всегда боялись пересекать границу с Зимним лесом, ведь существует поверье, что там очень опасно. В один прекрасный день Динь-Динь, сгорая от любопытства, подходит вплотную к лесу, и ее крылья неожиданно начинают блестеть и переливаться. Завороженная Динь, желая узнать тайну волшебных крыльев, кутается в теплое пальто и отправляется в глубь таинственного леса, где ее ждет неожиданное открытие...-Доп. информация: BDRip 720p сделан с Blu-Ray диска Secret of the Wings (2012) Blu-ray EUR 1080p AVC DD5.1-HDClub.
Отдельное спасибо xfiles за подготовку украинской звуковой дорожки, русских и украинских субтитров.
-Сэмпл/Sample (52.4 MB, 1 минута)-Для желающих - выложил отдельным файлом оригинальную (английскую) звуковую дорожку в формате DTS
SecretOfTheWings2012Eng6ch1509kbps24bit (810 MB)-Качество: BDRip 720p
Формат: MKV
Видео: 1280x720 (1.778:1), 23,976 fps, ~4749 kbps avg, 0.215 bit/pixel
Аудио #1: Русский, AC3, 6 ch, 48 kHz, 640 kbps - Дубляж | BD EUR
Аудио #2: Украинский, AC3, 6 ch, 48 kHz, 384 kbps - Дубляж | DVD9 R5
Аудио #3: English, AC3, 6 ch, 48 kHz, 640 kbps - Original
Субтитры: Русские (полные, форсированные), Украинские (полные), English (Full, SDH)
Навигация по главам: есть (12 именованных глав)
MediaInfo / x264Log
x264Log
raw [info]: 1280x720p 1:1 @ 24000/1001 fps (cfr)x264 [info]: using SAR=1/1x264 [info]: using cpu capabilities: MMX2 SSE2Fast SSSE3 SSE4.2 AVX XOP FMA4 FMA3 LZCNT BMI1x264 [info]: profile High, level 4.1x264 [info]: frame I:973 Avg QP:14.42 size:160831 PSNR Mean Y:48.71 U:50.81 V:50.95 Avg:49.31 Global:48.84x264 [info]: frame P:27674 Avg QP:16.62 size: 45488 PSNR Mean Y:46.94 U:49.24 V:49.40 Avg:47.58 Global:46.87x264 [info]: frame B:79338 Avg QP:19.90 size: 15861 PSNR Mean Y:46.29 U:48.84 V:48.94 Avg:46.97 Global:46.25x264 [info]: consecutive B-frames: 3.5% 3.7% 12.4% 40.7% 14.5% 20.3% 1.8% 1.2% 0.7% 0.6% 0.2% 0.2% 0.2%x264 [info]: mb I I16..4: 2.7% 69.5% 27.8%x264 [info]: mb P I16..4: 0.7% 13.7% 2.9% P16..4: 23.1% 21.8% 12.3% 2.9% 0.5% skip:22.2%x264 [info]: mb B I16..4: 0.2% 2.7% 0.5% B16..8: 21.7% 15.3% 3.8% direct: 5.1% skip:50.7% L0:36.8% L1:42.8% BI:20.4%x264 [info]: 8x8 transform intra:78.6% inter:53.1%x264 [info]: coded y,uvDC,uvAC intra: 89.4% 89.3% 69.9% inter: 18.6% 16.0% 6.2%x264 [info]: i16 v,h,dc,p: 16% 9% 5% 70%x264 [info]: i8 v,h,dc,ddl,ddr,vr,hd,vl,hu: 12% 13% 8% 8% 10% 11% 11% 12% 14%x264 [info]: i4 v,h,dc,ddl,ddr,vr,hd,vl,hu: 10% 9% 6% 8% 17% 15% 13% 10% 11%x264 [info]: i8c dc,h,v,p: 41% 23% 17% 18%x264 [info]: Weighted P-Frames: Y:2.6% UV:1.9%x264 [info]: ref P L0: 53.2% 11.1% 15.7% 5.6% 4.3% 3.4% 2.8% 1.8% 1.8% 0.4% 0.0%x264 [info]: ref B L0: 80.0% 9.4% 4.4% 2.2% 1.6% 1.3% 0.8% 0.3%x264 [info]: ref B L1: 93.6% 6.4%x264 [info]: SSIM Mean Y:0.9895769 (19.820db)x264 [info]: PSNR Mean Y:46.476 U:48.958 V:49.077 Avg:47.147 Global:46.417 kb/s:4749.17encoded 107985 frames, 6.61 fps, 4749.17 kb/s
GeneralUnique ID : 251814301252577150256645793007534675006 (0xBD71AB9A23A7694785A3215EF349143E)Complete name : Secret.Of.The.Wings.2012.BDRip.720p.dfcbit.mkvFormat : MatroskaFormat version : Version 2File size : 3.36 GiBDuration : 1h 15mnOverall bit rate : 6 416 KbpsEncoded date : UTC 2014-05-27 18:29:56Writing application : mkvmerge v4.0.0 ('The Stars were mine') built on Jun 6 2010 16:18:42Writing library : libebml v1.0.0 + libmatroska v1.0.0
VideoID : 1Format : AVCFormat/Info : Advanced Video CodecFormat profile : High@L4.1Format settings, CABAC : YesFormat settings, ReFrames : 9 framesCodec ID : V_MPEG4/ISO/AVCDuration : 1h 15mnBit rate : 4 749 KbpsWidth : 1 280 pixelsHeight : 720 pixelsDisplay aspect ratio : 16:9Frame rate mode : ConstantFrame rate : 23.976 fpsColor space : YUVChroma subsampling : 4:2:0Bit depth : 8 bitsScan type : ProgressiveBits/(Pixel*Frame) : 0.215Stream size : 2.49 GiB (72%)Title : NTSC, 1280x720 (1.778:1), BDRip 720p - tRuAVC & Multfilmy [DFCbit]Writing library : x264 core 142 r2431kMod ac76440Encoding settings : cabac=1 / ref=9 / deblock=1:-1:-1 / analyse=0x3:0x133 / me=umh / subme=11 / psy=1 / fade_compensate=0.00 / psy_rd=0.63:0.00 / mixed_ref=1 / me_range=32 / chroma_me=1 / trellis=2 / 8x8dct=1 / cqm=0 / deadzone=21,11 / fast_pskip=0 / chroma_qp_offset=-2 / threads=12 / lookahead_threads=3 / sliced_threads=0 / nr=0 / decimate=1 / interlaced=0 / bluray_compat=0 / constrained_intra=0 / fgo=0 / bframes=12 / b_pyramid=2 / b_adapt=2 / b_bias=0 / direct=1 / weightb=1 / open_gop=0 / weightp=2 / keyint=250 / keyint_min=23 / scenecut=40 / intra_refresh=0 / rc_lookahead=70 / rc=crf / mbtree=0 / crf=16.9020 / qcomp=0.81 / qpmin=0 / qpmax=69 / qpstep=4 / vbv_maxrate=50000 / vbv_bufsize=62500 / crf_max=0.0 / nal_hrd=none / filler=0 / ip_ratio=1.40 / pb_ratio=1.30 / aq=3:0.90Language : EnglishDefault : YesForced : NoColor primaries : BT.709Transfer characteristics : BT.709Matrix coefficients : BT.709
Audio #1ID : 2Format : AC-3Format/Info : Audio Coding 3Mode extension : CM (complete main)Format settings, Endianness : BigCodec ID : A_AC3Duration : 1h 15mnBit rate mode : ConstantBit rate : 640 KbpsChannel(s) : 6 channelsChannel positions : Front: L C R, Side: L R, LFESampling rate : 48.0 KHzBit depth : 16 bitsCompression mode : LossyStream size : 344 MiB (10%)Title : AC3, 6 ch, 48 kHz, 640 kbps - Дубляж | BD EURLanguage : RussianDefault : YesForced : No
Audio #2ID : 3Format : AC-3Format/Info : Audio Coding 3Mode extension : CM (complete main)Format settings, Endianness : BigCodec ID : A_AC3Duration : 1h 15mnBit rate mode : ConstantBit rate : 384 KbpsChannel(s) : 6 channelsChannel positions : Front: L C R, Side: L R, LFESampling rate : 48.0 KHzBit depth : 16 bitsCompression mode : LossyStream size : 206 MiB (6%)Title : AC3, 6 ch, 48 kHz, 384 kbps - Дубляж | DVD9 R5Language : UkrainianDefault : NoForced : No
Audio #3ID : 4Format : AC-3Format/Info : Audio Coding 3Mode extension : CM (complete main)Format settings, Endianness : BigCodec ID : A_AC3Duration : 1h 15mnBit rate mode : ConstantBit rate : 640 KbpsChannel(s) : 6 channelsChannel positions : Front: L C R, Side: L R, LFESampling rate : 48.0 KHzBit depth : 16 bitsCompression mode : LossyStream size : 344 MiB (10%)Title : AC3, 6 ch, 48 kHz, 640 kbps - OriginalLanguage : EnglishDefault : NoForced : No
Text #1ID : 5Format : UTF-8Codec ID : S_TEXT/UTF8Codec ID/Info : UTF-8 Plain TextTitle : SRT, FullLanguage : RussianDefault : NoForced : No
Text #2ID : 6Format : UTF-8Codec ID : S_TEXT/UTF8Codec ID/Info : UTF-8 Plain TextTitle : SRT, ForcedLanguage : RussianDefault : NoForced : No
Text #3ID : 7Format : UTF-8Codec ID : S_TEXT/UTF8Codec ID/Info : UTF-8 Plain TextTitle : SRT, FullLanguage : UkrainianDefault : NoForced : No
Text #4ID : 8Format : UTF-8Codec ID : S_TEXT/UTF8Codec ID/Info : UTF-8 Plain TextTitle : SRT, FullLanguage : EnglishDefault : NoForced : No
Text #5ID : 9Format : UTF-8Codec ID : S_TEXT/UTF8Codec ID/Info : UTF-8 Plain TextTitle : SRT, (SDH)Language : EnglishDefault : NoForced : No
Menu00:00:00.000 : en:01. Opening Titles00:05:53.019 : en:02. Crossing The Border00:09:04.627 : en:03. Seeking Answers00:14:10.516 : en:04. Tink's Plan00:20:32.481 : en:05. A Visit To The Keeper00:28:17.404 : en:06. Exploring Winter00:34:46.209 : en:07. Preparing For Periwinkle00:40:26.466 : en:08. Seeing Summer00:48:07.134 : en:09. Separate Worlds00:53:50.686 : en:10. Saving The Tree01:00:37.175 : en:11. A Broken Wing01:07:47.563 : en:12. Credits
Скриншоты
Скриншот с названием мультфильма
--BDRip 720p


Source Blu-Ray

Релиз от групп | and | -Данный релиз не будет воспроизводиться на бытовых плеерах не поддерживающих MKV и H.264FAQ по просмотру AVC
  • Смогу ли я запустить AVC фильм на своём компьютере?
  • Сэмпл из раздачи не воспроизводится или отсутствует звук/изображение. Что делать?
  • Что такое H.264/AVC и зачем он нужен?
  • Что за дурацкий формат .MKV?
  • Почему MKV? Чем AVI хуже?
  • Не могу переключить/включить/выключить аудио/видео дорожки и/или субтитры. Что делать?
  • Будут ли фильмы в таком формате проигрываться на бытовых плеерах без компьютера?
  • Проигрываю фильм, а картинка очень сильно отличается от скринов. Что не так?
  • Можно ли сконвертировать AVC в DVD?
  • Почему в характеристиках видеопотока указано два разрешения и что такое анаморфное разрешение?
    Обсуждение релизов в AVC формате || Свежие AVC рипы

  • _________________
    Показать сообщения:    

    Текущее время: Сегодня 07:01

    Часовой пояс: GMT



    Вы не можете начинать темы
    Вы не можете отвечать на сообщения
    Вы не можете редактировать свои сообщения
    Вы не можете удалять свои сообщения
    Вы не можете голосовать в опросах
    Вы не можете прикреплять файлы к сообщениям
    Вы не можете скачивать файлы
    Наши партнеры: интернет магазин Ивановского трикотажа textilla.ru