Важное объявление!
У Нас Все раздачи мультитрекерные, при нуле пиров в релизах, можете смело вставать на закачку!
 
Автор Сообщение

HUNTER

Стаж:
4 года 4 месяца
Сообщений:
56790

Репутация: 101

[+] [-]
Вне форума [Профиль] [ЛС]


Феи: Легенда о чудовище
Tinker Bell and the Legend of the NeverBeast
-
Страна: США [DisneyToon Studios]
Жанр: фэнтези, приключения, семейный
Продолжительность: 01:16:14
Год выпуска: 2014
Перевод: Профессиональный (дублированный) Blu-ray EUR; Disney / Buena Vista
Русские субтитры: Есть
Режиссёр: Стив Лотер / Steve Loter
Роли озвучивали: Мэй Уитман, Джиннифер Гудвин, Розарио Доусон, Люси Лью, Томас Леннон, Рэйвен, Памела Адлон, Меган Хилти, Мелани Браун
Роли дублировали : Анна Бегунова, Екатерина Семенова, Ирина Слуцкая, Ольга Арнтгольц, Елена Великанова-ОписаниеАнимационная сказка расскажет удивительную историю о веселой и талантливой фее Фауне, которая убеждена в том, что о книге нельзя судить по ее обложке, впрочем, как и о животном по его клыкам, поэтому она дружит с таинственным существом громадных размеров из Нетландии по прозвищу Чудовище.
В это время группа волшебных фей разведки не настолько уверены в этом страшном звере и намереваются захватить его прежде, чем он уничтожит их дома. Они хотят отправиться на поиски Чудовища. Фауна, чтобы спасти своего нового друга, остается лишь доказать всем, что он — существо доброе и не собирается вредить другим…
-
Феи: Легенда о чудовище [Tinker Bell and the Legend of the NeverBeast] американский компьютерный анимационный фильм DisneyToon Studios основанный на персонажах Tinker Bell из J. M. Barrie's Peter and Wendy.. Distributed by Walt Disney Studios
Релиз:

Сэмпл

IMDb: 7.30 (1220)
Качество: BDRip 1080p Tinkerbell.And.The.Legend.Of.The.Neverbeast.2014.BDRemux.1080p rutor
Формат: MKV
Видео: AVC 13.5 Mbps 1920 x 1080 (1.778) 23.976 fps
Аудио: AC-3 640 Kbps 6 channels, 48.0 KHz Rus DUB Blu-ray EUR
Аудио 2: DTS 1510 Kbps 6 channels, 48.0 KH Ukr DUB Disney / Buena Vista
Аудио 3: DTS 1510 Kbps 6 channels, 48.0 KHz Eng
Субтитры: Rus, Eng SRT

MI | Log

Log
x264 [info]: frame I:1065 Avg QP:15.00 size:442815
x264 [info]: frame P:28700 Avg QP:16.06 size:142895
x264 [info]: frame B:79917 Avg QP:18.49 size: 41648
x264 [info]: consecutive B-frames: 5.6% 3.1% 11.7% 26.7% 20.5% 29.3% 2.1% 0.7% 0.3%
x264 [info]: mb I I16..4: 31.4% 58.6% 10.0%
x264 [info]: mb P I16..4: 1.8% 21.9% 1.1% P16..4: 27.0% 27.7% 14.3% 2.9% 0.3% skip: 3.0%
x264 [info]: mb B I16..4: 0.8% 2.0% 0.2% B16..8: 38.8% 21.0% 4.2% direct: 6.3% skip:26.8% L0:44.7% L1:41.4% BI:13.9%
x264 [info]: 8x8 transform intra:80.7% inter:57.3%
x264 [info]: direct mvs spatial:100.0% temporal:0.0%
x264 [info]: coded y,uvDC,uvAC intra: 98.3% 91.2% 79.8% inter: 27.3% 39.7% 11.2%
x264 [info]: i16 v,h,dc,p: 2% 2% 46% 50%
x264 [info]: i8 v,h,dc,ddl,ddr,vr,hd,vl,hu: 9% 8% 14% 10% 12% 12% 12% 11% 13%
x264 [info]: i4 v,h,dc,ddl,ddr,vr,hd,vl,hu: 11% 6% 11% 8% 16% 14% 13% 10% 11%
x264 [info]: i8c dc,h,v,p: 52% 21% 12% 14%
x264 [info]: Weighted P-Frames: Y:3.1% UV:2.6%
x264 [info]: ref P L0: 56.0% 9.2% 24.5% 8.9% 1.4% 0.0%
x264 [info]: ref B L0: 86.5% 10.5% 3.0%
x264 [info]: ref B L1: 94.0% 6.0%
x264 [info]: kb/s:13817.14
x264 [total]: encoded 109682 frames, 3.81 fps, 13817.14 kb/s, duration 7:59:34.81
Format                                   : MatroskaFormat version                           : Version 4 / Version 2File size                                : 9.31 GiBDuration                                 : 1h 16mnOverall bit rate                         : 17.5 MbpsEncoded date                             : UTC 2015-04-27 08:08:29Writing application                      : mkvmerge v6.7.0 ('Back to the Ground') 32bit built on Jan  8 2014 15:03:17Writing library                          : libebml v1.3.0 + libmatroska v1.4.1
VideoID : 1Format : AVCFormat/Info : Advanced Video CodecFormat profile : High@L4.1Format settings, CABAC : YesFormat settings, ReFrames : 4 framesCodec ID : V_MPEG4/ISO/AVCDuration : 1h 16mnBit rate : 13.5 MbpsWidth : 1 920 pixelsHeight : 1 080 pixelsDisplay aspect ratio : 16:9Frame rate mode : ConstantFrame rate : 23.976 fpsColor space : YUVChroma subsampling : 4:2:0Bit depth : 8 bitsScan type : ProgressiveBits/(Pixel*Frame) : 0.271Stream size : 7.18 GiB (77%)Title : Tinker Bell and the Legend of the NeverBeast 2014 [rutracker.org]Writing library : x264 core 146 r2538kMod 121396cEncoding settings : cabac=1 / ref=4 / deblock=1:-3:-2 / analyse=0x3:0x133 / me=umh / subme=11 / psy=1 / fade_compensate=0.00 / psy_rd=1.00:0.05 / mixed_ref=1 / me_range=32 / chroma_me=1 / trellis=2 / 8x8dct=1 / cqm=0 / deadzone=21,11 / fast_pskip=0 / chroma_qp_offset=-3 / threads=12 / lookahead_threads=2 / sliced_threads=0 / nr=0 / decimate=1 / interlaced=0 / bluray_compat=0 / constrained_intra=0 / fgo=0 / bframes=8 / b_pyramid=2 / b_adapt=2 / b_bias=0 / direct=3 / weightb=1 / open_gop=0 / weightp=2 / keyint=250 / keyint_min=23 / scenecut=40 / intra_refresh=0 / rc_lookahead=80 / rc=crf / mbtree=0 / crf=17.5000 / qcomp=0.60 / qpmin=0 / qpmax=69 / qpstep=4 / vbv_maxrate=50000 / vbv_bufsize=62500 / crf_max=0.0 / nal_hrd=none / filler=0 / ip_ratio=1.40 / pb_ratio=1.30 / aq=3:0.90Language : EnglishDefault : YesForced : No
Audio #1ID : 2Format : AC-3Format/Info : Audio Coding 3Mode extension : CM (complete main)Format settings, Endianness : BigCodec ID : A_AC3Duration : 1h 16mnBit rate mode : ConstantBit rate : 640 KbpsChannel(s) : 6 channelsChannel positions : Front: L C R, Side: L R, LFESampling rate : 48.0 KHzBit depth : 16 bitsCompression mode : LossyStream size : 349 MiB (4%)Title : DUB [Blu-ray EUR]Language : RussianDefault : YesForced : No
Audio #2ID : 3Format : DTSFormat/Info : Digital Theater SystemsMode : 16Format settings, Endianness : BigCodec ID : A_DTSDuration : 1h 16mnBit rate mode : ConstantBit rate : 1 510 KbpsChannel(s) : 6 channelsChannel positions : Front: L C R, Side: L R, LFESampling rate : 48.0 KHzBit depth : 24 bitsCompression mode : LossyStream size : 823 MiB (9%)Title : DUB [Disney / Buena Vista]Language : UkrainianDefault : NoForced : No
Audio #3ID : 4Format : DTSFormat/Info : Digital Theater SystemsMode : 16Format settings, Endianness : BigCodec ID : A_DTSDuration : 1h 16mnBit rate mode : ConstantBit rate : 1 509 KbpsChannel(s) : 6 channelsChannel positions : Front: L C R, Side: L R, LFESampling rate : 48.0 KHzBit depth : 24 bitsCompression mode : LossyStream size : 823 MiB (9%)Title : OriginalLanguage : EnglishDefault : NoForced : No
Text #1ID : 5Format : UTF-8Codec ID : S_TEXT/UTF8Codec ID/Info : UTF-8 Plain TextTitle : Full [iTunes]Language : RussianDefault : NoForced : No
Text #2ID : 6Format : UTF-8Codec ID : S_TEXT/UTF8Codec ID/Info : UTF-8 Plain TextTitle : iTunesLanguage : EnglishDefault : NoForced : No
Text #3ID : 7Format : UTF-8Codec ID : S_TEXT/UTF8Codec ID/Info : UTF-8 Plain TextTitle : FullLanguage : EnglishDefault : NoForced : No
Text #4ID : 8Format : UTF-8Codec ID : S_TEXT/UTF8Codec ID/Info : UTF-8 Plain TextTitle : SDHLanguage : EnglishDefault : NoForced : No
Menu00:00:00.000 : en:1. Awakening The Beast00:03:08.188 : en:2. Baby Hawk00:10:55.071 : en:3. A Great Discovery00:16:45.087 : en:4. An Understanding00:20:26.684 : en:5. Making Friends00:24:20.501 : en:6. Tower Building00:30:58.732 : en:7. Introducing Gruff00:34:42.038 : en:8. Fawn's Expertise00:38:09.245 : en:9. The Beast's Safety00:41:13.012 : en:10. The Search Begins00:44:39.468 : en:11. Transformation00:49:54.992 : en:12. Learning The Truth00:53:05.766 : en:13. Fighting The Storm00:57:07.883 : en:14. Saving Pixie Hollow01:02:54.688 : en:15. Going Home01:07:54.612 : en:16. End Credits

_________________
Показать сообщения:    

Текущее время: Сегодня 09:15

Часовой пояс: GMT



Вы не можете начинать темы
Вы не можете отвечать на сообщения
Вы не можете редактировать свои сообщения
Вы не можете удалять свои сообщения
Вы не можете голосовать в опросах
Вы не можете прикреплять файлы к сообщениям
Вы не можете скачивать файлы