Важное объявление!
У Нас Все раздачи мультитрекерные, при нуле пиров в релизах, можете смело вставать на закачку!
 
Автор Сообщение

HUNTER

Стаж:
4 года 4 месяца
Сообщений:
56722

Репутация: 101

[+] [-]
Вне форума [Профиль] [ЛС]


Феи: Легенда о чудовище
Tinker Bell and the Legend of the NeverBeast
-
Страна: США [DisneyToon Studios]
Жанр: фэнтези, приключения, семейный
Продолжительность: 01:16:14
Год выпуска: 2014
Перевод: Профессиональный (дублированный) Blu-ray EUR
Русские субтитры: Есть
Режиссёр: Стив Лотер / Steve Loter
Роли озвучивали: Мэй Уитман, Джиннифер Гудвин, Розарио Доусон, Люси Лью, Томас Леннон, Рэйвен, Памела Адлон, Меган Хилти, Мелани Браун
Роли дублировали : Анна Бегунова, Екатерина Семенова, Ирина Слуцкая, Ольга Арнтгольц, Елена Великанова-ОписаниеАнимационная сказка расскажет удивительную историю о веселой и талантливой фее Фауне, которая убеждена в том, что о книге нельзя судить по ее обложке, впрочем, как и о животном по его клыкам, поэтому она дружит с таинственным существом громадных размеров из Нетландии по прозвищу Чудовище.
В это время группа волшебных фей разведки не настолько уверены в этом страшном звере и намереваются захватить его прежде, чем он уничтожит их дома. Они хотят отправиться на поиски Чудовища. Фауна, чтобы спасти своего нового друга, остается лишь доказать всем, что он — существо доброе и не собирается вредить другим…
-
Феи: Легенда о чудовище [Tinker Bell and the Legend of the NeverBeast] американский компьютерный анимационный фильм DisneyToon Studios основанный на персонажах Tinker Bell из J. M. Barrie's Peter and Wendy.. Distributed by Walt Disney Studios
Релиз:

Сэмпл

IMDb: 7.30 (1220)
Качество: BDRip 720p Tinkerbell.And.The.Legend.Of.The.Neverbeast.2014.BDRemux.1080p rutor
Формат: MKV
Видео: AVC 4265 Kbps 1280 x 720 (1.778) 23.976 fps
Аудио: AC-3 640 Kbps 6 channels, 48.0 KHz Rus DUB Blu-ray EUR
Аудио 2: AC-3 640 Kbps 6 channels, 48.0 KHz Eng
Субтитры: Rus, Eng SRT

MI | Log

Log
x264 [info]: frame I:1058 Avg QP:14.74 size:181675
x264 [info]: frame P:26604 Avg QP:16.17 size: 47937
x264 [info]: frame B:82020 Avg QP:18.95 size: 12614
x264 [info]: consecutive B-frames: 4.2% 4.1% 7.9% 26.5% 16.5% 32.4% 3.9% 2.0% 0.8% 1.5% 0.4%
x264 [info]: mb I I16..4: 7.4% 69.1% 23.4%
x264 [info]: mb P I16..4: 0.4% 12.7% 1.7% P16..4: 27.1% 29.8% 15.1% 3.2% 0.4% skip: 9.6%
x264 [info]: mb B I16..4: 0.0% 1.3% 0.2% B16..8: 28.9% 19.1% 3.8% direct: 4.2% skip:42.4% L0:43.2% L1:45.0% BI:11.8%
x264 [info]: 8x8 transform intra:82.7% inter:55.3%
x264 [info]: direct mvs spatial:100.0% temporal:0.0%
x264 [info]: coded y,uvDC,uvAC intra: 96.6% 91.7% 76.8% inter: 19.1% 19.4% 6.5%
x264 [info]: i16 v,h,dc,p: 2% 4% 13% 81%
x264 [info]: i8 v,h,dc,ddl,ddr,vr,hd,vl,hu: 7% 7% 6% 11% 15% 14% 14% 13% 14%
x264 [info]: i4 v,h,dc,ddl,ddr,vr,hd,vl,hu: 6% 5% 3% 9% 20% 17% 15% 11% 12%
x264 [info]: i8c dc,h,v,p: 44% 22% 15% 20%
x264 [info]: Weighted P-Frames: Y:3.7% UV:2.9%
x264 [info]: ref P L0: 50.4% 8.4% 17.5% 6.3% 5.4% 3.9% 3.7% 2.0% 2.1% 0.3% 0.0%
x264 [info]: ref B L0: 67.4% 12.9% 7.3% 4.3% 3.2% 2.8% 1.6% 0.6%
x264 [info]: ref B L1: 91.7% 8.3%
x264 [info]: kb/s:4375.63
x264 [total]: encoded 109682 frames, 7.08 fps, 4375.63 kb/s, duration 4:18:08.52
Format                                   : MatroskaFormat version                           : Version 4 / Version 2File size                                : 3.01 GiBDuration                                 : 1h 16mnOverall bit rate                         : 5 658 KbpsEncoded date                             : UTC 2015-03-25 09:06:29Writing application                      : mkvmerge v6.7.0 ('Back to the Ground') 32bit built on Jan  8 2014 15:03:17Writing library                          : libebml v1.3.0 + libmatroska v1.4.1
VideoID : 1Format : AVCFormat/Info : Advanced Video CodecFormat profile : High@L4.1Format settings, CABAC : YesFormat settings, ReFrames : 9 framesCodec ID : V_MPEG4/ISO/AVCDuration : 1h 16mnBit rate : 4 265 KbpsWidth : 1 280 pixelsHeight : 720 pixelsDisplay aspect ratio : 16:9Frame rate mode : ConstantFrame rate : 23.976 fpsColor space : YUVChroma subsampling : 4:2:0Bit depth : 8 bitsScan type : ProgressiveBits/(Pixel*Frame) : 0.193Stream size : 2.27 GiB (75%)Title : Tinker Bell and the Legend of the NeverBeast (2014) [rutracker.org]Writing library : x264 core 146 r2538kMod 121396cEncoding settings : cabac=1 / ref=9 / deblock=1:-3:-2 / analyse=0x3:0x133 / me=umh / subme=11 / psy=1 / fade_compensate=0.00 / psy_rd=1.00:0.05 / mixed_ref=1 / me_range=32 / chroma_me=1 / trellis=2 / 8x8dct=1 / cqm=0 / deadzone=21,11 / fast_pskip=0 / chroma_qp_offset=-3 / threads=12 / lookahead_threads=3 / sliced_threads=0 / nr=0 / decimate=1 / interlaced=0 / bluray_compat=0 / constrained_intra=0 / fgo=0 / bframes=10 / b_pyramid=2 / b_adapt=2 / b_bias=0 / direct=3 / weightb=1 / open_gop=0 / weightp=2 / keyint=250 / keyint_min=23 / scenecut=40 / intra_refresh=0 / rc_lookahead=80 / rc=crf / mbtree=0 / crf=17.1000 / qcomp=0.60 / qpmin=0 / qpmax=69 / qpstep=4 / vbv_maxrate=50000 / vbv_bufsize=62500 / crf_max=0.0 / nal_hrd=none / filler=0 / ip_ratio=1.40 / pb_ratio=1.30 / aq=3:0.90Language : EnglishDefault : YesForced : No
Audio #1ID : 2Format : AC-3Format/Info : Audio Coding 3Mode extension : CM (complete main)Format settings, Endianness : BigCodec ID : A_AC3Duration : 1h 16mnBit rate mode : ConstantBit rate : 640 KbpsChannel(s) : 6 channelsChannel positions : Front: L C R, Side: L R, LFESampling rate : 48.0 KHzBit depth : 16 bitsCompression mode : LossyStream size : 349 MiB (11%)Title : DUB [Blu-ray EUR]Language : RussianDefault : YesForced : No
Audio #2ID : 3Format : AC-3Format/Info : Audio Coding 3Mode extension : CM (complete main)Format settings, Endianness : BigCodec ID : A_AC3Duration : 1h 16mnBit rate mode : ConstantBit rate : 640 KbpsChannel(s) : 6 channelsChannel positions : Front: L C R, Side: L R, LFESampling rate : 48.0 KHzBit depth : 16 bitsCompression mode : LossyStream size : 349 MiB (11%)Title : OriginalLanguage : EnglishDefault : NoForced : No
Text #1ID : 4Format : UTF-8Codec ID : S_TEXT/UTF8Codec ID/Info : UTF-8 Plain TextTitle : FullLanguage : RussianDefault : NoForced : No
Text #2ID : 5Format : UTF-8Codec ID : S_TEXT/UTF8Codec ID/Info : UTF-8 Plain TextTitle : FullLanguage : EnglishDefault : NoForced : No
Text #3ID : 6Format : UTF-8Codec ID : S_TEXT/UTF8Codec ID/Info : UTF-8 Plain TextTitle : SDHLanguage : EnglishDefault : NoForced : No
Menu00:00:00.000 : en:1. Awakening The Beast00:03:08.188 : en:2. Baby Hawk00:10:55.071 : en:3. A Great Discovery00:16:45.087 : en:4. An Understanding00:20:26.684 : en:5. Making Friends00:24:20.501 : en:6. Tower Building00:30:58.732 : en:7. Introducing Gruff00:34:42.038 : en:8. Fawn's Expertise00:38:09.245 : en:9. The Beast's Safety00:41:13.012 : en:10. The Search Begins00:44:39.468 : en:11. Transformation00:49:54.992 : en:12. Learning The Truth00:53:05.766 : en:13. Fighting The Storm00:57:07.883 : en:14. Saving Pixie Hollow01:02:54.688 : en:15. Going Home01:07:54.612 : en:16. End Credits

Скриншоты | Rip vs Source







Rip vs Source
Rip

Source

_________________
Показать сообщения:    

Текущее время: Сегодня 14:01

Часовой пояс: GMT



Вы не можете начинать темы
Вы не можете отвечать на сообщения
Вы не можете редактировать свои сообщения
Вы не можете удалять свои сообщения
Вы не можете голосовать в опросах
Вы не можете прикреплять файлы к сообщениям
Вы не можете скачивать файлы