Важное объявление!
У Нас Все раздачи мультитрекерные, при нуле пиров в релизах, можете смело вставать на закачку!
 
Автор Сообщение

HUNTER

Стаж:
4 года 4 месяца
Сообщений:
56798

Репутация: 101

[+] [-]
Вне форума [Профиль] [ЛС]


Феи: Легенда о чудовище
Tinker Bell and the Legend of the NeverBeast
-
Страна: США [DisneyToon Studios]
Жанр: фэнтези, приключения, семейный
Продолжительность: 01:16:14
Год выпуска: 2014
Перевод: Профессиональный (дублированный) iTunes
Русские субтитры: нет
Режиссёр: Стив Лотер / Steve Loter
Роли озвучивали: Мэй Уитман, Джиннифер Гудвин, Розарио Доусон, Люси Лью, Томас Леннон, Рэйвен, Памела Адлон, Меган Хилти, Мелани Браун
Роли дублировали : Анна Бегунова, Екатерина Семенова, Ирина Слуцкая, Ольга Арнтгольц, Елена Великанова-ОписаниеАнимационная сказка расскажет удивительную историю о веселой и талантливой фее Фауне, которая убеждена в том, что о книге нельзя судить по ее обложке, впрочем, как и о животном по его клыкам, поэтому она дружит с таинственным существом громадных размеров из Нетландии по прозвищу Чудовище.
В это время группа волшебных фей разведки не настолько уверены в этом страшном звере и намереваются захватить его прежде, чем он уничтожит их дома. Они хотят отправиться на поиски Чудовища. Фауна, чтобы спасти своего нового друга, остается лишь доказать всем, что он — существо доброе и не собирается вредить другим…
-
Феи: Легенда о чудовище [Tinker Bell and the Legend of the NeverBeast] американский компьютерный анимационный фильм DisneyToon Studios основанный на персонажах Tinker Bell из J. M. Barrie's Peter and Wendy.. Distributed by Walt Disney Studios
Сэмпл

IMDb: 7.30 (1220)
Качество: BDRip-AVC Tinkerbell.And.The.Legend.Of.The.Neverbeast.2014.BDRemux.1080p rutor
Формат: MKV
Видео: AVC 3578 Kbps 1152 x 648 (1.778) 23.976 fps
Аудио: AC-3 384 Kbps 6 channels, 48.0 KHz Rus DUB iTunes
Аудио 2: AC-3 384 Kbps 6 channels, 48.0 KHz Eng
Субтитры: Eng SRT

MI | Log

Log
x264 [info]: frame I:1019 Avg QP:14.61 size:152741
x264 [info]: frame P:26682 Avg QP:16.10 size: 39530
x264 [info]: frame B:81981 Avg QP:19.21 size: 10769
x264 [info]: consecutive B-frames: 4.0% 3.5% 8.0% 32.6% 15.7% 25.8% 4.1% 2.6% 0.6% 1.9% 0.3% 0.3% 0.2% 0.3% 0.1%
x264 [info]: mb I I16..4: 6.7% 67.5% 25.8%
x264 [info]: mb P I16..4: 0.4% 12.8% 1.9% P16..4: 26.2% 28.8% 15.0% 3.3% 0.5% skip:11.2%
x264 [info]: mb B I16..4: 0.0% 1.4% 0.2% B16..8: 28.0% 18.8% 4.0% direct: 4.3% skip:43.3% L0:42.7% L1:44.9% BI:12.3%
x264 [info]: 8x8 transform intra:81.6% inter:54.2%
x264 [info]: direct mvs spatial:100.0% temporal:0.0%
x264 [info]: coded y,uvDC,uvAC intra: 96.3% 91.7% 78.6% inter: 19.1% 17.8% 7.0%
x264 [info]: i16 v,h,dc,p: 3% 4% 13% 81%
x264 [info]: i8 v,h,dc,ddl,ddr,vr,hd,vl,hu: 9% 8% 6% 10% 14% 13% 14% 12% 14%
x264 [info]: i4 v,h,dc,ddl,ddr,vr,hd,vl,hu: 9% 6% 3% 9% 18% 16% 15% 11% 12%
x264 [info]: i8c dc,h,v,p: 44% 22% 15% 19%
x264 [info]: Weighted P-Frames: Y:3.9% UV:2.9%
x264 [info]: ref P L0: 49.9% 8.3% 16.6% 6.0% 5.1% 3.7% 3.5% 1.8% 1.8% 1.5% 1.6% 0.2% 0.0%
x264 [info]: ref B L0: 67.3% 12.0% 6.7% 3.8% 2.9% 2.5% 2.1% 1.4% 0.9% 0.4%
x264 [info]: ref B L1: 91.8% 8.2%
x264 [info]: kb/s:3660.60
x264 [total]: encoded 109682 frames, 7.43 fps, 3660.61 kb/s, duration 4:06:06.02
Format                                   : MatroskaFormat version                           : Version 4 / Version 2File size                                : 2.36 GiBDuration                                 : 1h 16mnOverall bit rate                         : 4 431 KbpsEncoded date                             : UTC 2015-03-09 22:52:59Writing application                      : mkvmerge v6.7.0 ('Back to the Ground') 32bit built on Jan  8 2014 15:03:17Writing library                          : libebml v1.3.0 + libmatroska v1.4.1
VideoID : 1Format : AVCFormat/Info : Advanced Video CodecFormat profile : High@L4.1Format settings, CABAC : YesFormat settings, ReFrames : 11 framesCodec ID : V_MPEG4/ISO/AVCDuration : 1h 16mnBit rate : 3 575 KbpsWidth : 1 152 pixelsHeight : 648 pixelsDisplay aspect ratio : 16:9Frame rate mode : ConstantFrame rate : 23.976 fpsColor space : YUVChroma subsampling : 4:2:0Bit depth : 8 bitsScan type : ProgressiveBits/(Pixel*Frame) : 0.200Stream size : 1.90 GiB (81%)Title : Legend of the NeverBeast [rutracker.org]Writing library : x264 core 144 r2525kMod 40bb568Encoding settings : cabac=1 / ref=11 / deblock=1:-2:-1 / analyse=0x3:0x133 / me=umh / subme=11 / psy=1 / fade_compensate=0.00 / psy_rd=1.00:0.05 / mixed_ref=1 / me_range=32 / chroma_me=1 / trellis=2 / 8x8dct=1 / cqm=0 / deadzone=21,11 / fast_pskip=0 / chroma_qp_offset=-3 / threads=12 / lookahead_threads=3 / sliced_threads=0 / nr=0 / decimate=1 / interlaced=0 / bluray_compat=0 / constrained_intra=0 / fgo=0 / bframes=14 / b_pyramid=2 / b_adapt=2 / b_bias=0 / direct=3 / weightb=1 / open_gop=0 / weightp=2 / keyint=250 / keyint_min=23 / scenecut=40 / intra_refresh=0 / rc_lookahead=80 / rc=crf / mbtree=0 / crf=16.9000 / qcomp=0.60 / qpmin=0 / qpmax=69 / qpstep=4 / vbv_maxrate=50000 / vbv_bufsize=62500 / crf_max=0.0 / nal_hrd=none / filler=0 / ip_ratio=1.40 / pb_ratio=1.30 / aq=3:0.90Language : EnglishDefault : YesForced : No
Audio #1ID : 2Format : AC-3Format/Info : Audio Coding 3Mode extension : CM (complete main)Format settings, Endianness : BigCodec ID : A_AC3Duration : 1h 16mnBit rate mode : ConstantBit rate : 384 KbpsChannel(s) : 6 channelsChannel positions : Front: L C R, Side: L R, LFESampling rate : 48.0 KHzBit depth : 16 bitsCompression mode : LossyStream size : 209 MiB (9%)Title : DUB [iTunes]Language : RussianDefault : YesForced : No
Audio #2ID : 3Format : AC-3Format/Info : Audio Coding 3Mode extension : CM (complete main)Format settings, Endianness : BigCodec ID : A_AC3Duration : 1h 16mnBit rate mode : ConstantBit rate : 384 KbpsChannel(s) : 6 channelsChannel positions : Front: L C R, Side: L R, LFESampling rate : 48.0 KHzBit depth : 16 bitsCompression mode : LossyStream size : 209 MiB (9%)Title : OriginalLanguage : EnglishDefault : NoForced : No
TextID : 4Format : UTF-8Codec ID : S_TEXT/UTF8Codec ID/Info : UTF-8 Plain TextTitle : FullLanguage : EnglishDefault : NoForced : No

Скриншоты






_________________
Показать сообщения:    

Текущее время: Сегодня 05:40

Часовой пояс: GMT



Вы не можете начинать темы
Вы не можете отвечать на сообщения
Вы не можете редактировать свои сообщения
Вы не можете удалять свои сообщения
Вы не можете голосовать в опросах
Вы не можете прикреплять файлы к сообщениям
Вы не можете скачивать файлы