Важное объявление!
У Нас Все раздачи мультитрекерные, при нуле пиров в релизах, можете смело вставать на закачку!
 
Автор Сообщение

Shalun

Стаж:
4 года 4 месяца
Сообщений:
802

Репутация: 123

[+] [-]
Вне форума [Профиль] [ЛС]

- Фантом / The Darkest Hour -
«Survive The Holidays»
Информация о фильме:
Название: Фантом
Оригинальное название: The Darkest Hour
Год выхода: 2011
Жанр: Фантастика, Триллер
Режиссёр: Крис Горак / Chris Gorak
В ролях: Эмиль Хирш / (Шон), Оливия Тирлби / (Натали), Макс Мингелла / (Бен), Рэйчел Тейлор / (Энн), Юэль Киннаман / (Скайлер), Вероника Вернадская / (Вика), Дато Бахтадзе / (Сергей), Гоша Куценко / (Матвей), Николай Ефремов / (Саша), Артур Смольянинов / (Юрий), Анна Рудакова / (Тесс), Петр Федоров / (Антон Батькин), Иван Громов / (бармен), Александр Черных / (бармен), Олег Поддубный / (полицейский), Василий Фурсенко / (второй полицейский), Илья Иванов / (пьяный русский), Сэм Ванин / (второй пьяный русский), Аля Никулина / (бабушка), Игорь Новосёлов / (кадет), Мария Романова / (стюардесса), Владислав Барковский / (вышибала), Валентина Соболева / (девушка в клубе), Луис Либи / (DJ), Ирина Антоненко / (красотка в клубе), Катерина Будякова / (девушка в диджейке), Ольга Жук / (тусовщица), Тамара Жукова / (тусовщица), Александр Майстро / (бармен)
Сюжет фильма:
Фильм расскажет про четырех американских туристов, оказавшихся в Москве в момент нападения на нее инопланетян.

Страна: США Россия
Продолжительность: 01:28:58
Перевод: Русский дублированный
Субтитры: Русские (3 вида), Украинские, Английские (полные (2 вида), SDH (2 вида), форсированные).

Субтитры (подробнее)

1. Русские субтитры представлены в 3-х видах: 1-ый и 2-ой вид - набраны по дубляжу без и с русскими фразами (Тайпсеттинг: fake88, cr0w, Aiser; Перевод недостающих фраз: Евгений Воронин aka voronine); 3-ий вид - перевод Геннадий Панин).
2. В английских субтитрах исправлены ошибки конвертирования, также в архив добавлены английские форсированные субтитры на русскую речь.
Информация о файле:
Качество: BDRip
Файл: AVI
Кодек: XviD, build 65 codec
Видео: 720 x 304, 2.37:1; 23.976 fps; ~ 1871 kbps; 0.356 bit/pixel
Аудио #1: 48 kHz, AC3 Dolby Digital, 3/2 (L,C,R,l,r) + LFE ch, ~448.00 kbps avg | Dub
Аудио #2: 48 kHz, AC3 Dolby Digital, 3/2 (L,C,R,l,r) + LFE ch, ~448.00 kbps avg | Ukr Dub | narod.ru
Аудио #3:
48 kHz, AC3 Dolby Digital, 3/2 (L,C,R,l,r) + LFE ch, ~448.00 kbps avg | Eng | narod.ru
Размер: 1486 Mb (1/3 )-
-

MediaInfo

General
Format : AVI
Format/Info : Audio Video Interleave
File size : 1.45 GiB
Duration : 1h 29mn
Overall bit rate : 2 328 Kbps
Movie name : Fantom.2011.RUS.BDRip.XviD.AC3.-HQ-ViDEO
Director : AngelOfTrue
Writing application : VirtualDubMod 1.5.10.3 | www.virtualdub-fr.org || (build 2550/release)
Original source form/Name : Movie
Copyright : HQ-ViDEO
Comment : 23.06.2012
Video
ID : 0
Format : MPEG-4 Visual
Format profile : Advanced Simple@L5
Format settings, BVOP : 1
Format settings, QPel : No
Format settings, GMC : No warppoints
Format settings, Matrix : Custom
Codec ID : XVID
Codec ID/Hint : XviD
Duration : 1h 29mn
Bit rate : 1 871 Kbps
Width : 720 pixels
Height : 304 pixels
Display aspect ratio : 2.35:1
Frame rate : 23.976 fps
Color space : YUV
Chroma subsampling : 4:2:0
Bit depth : 8 bits
Scan type : Progressive
Compression mode : Lossy
Bits/(Pixel*Frame) : 0.356
Stream size : 1.17 GiB (80%)
Writing library : XviD 65
Audio
ID : 1
Format : AC-3
Format/Info : Audio Coding 3
Mode extension : CM (complete main)
Codec ID : 2000
Duration : 1h 29mn
Bit rate mode : Constant
Bit rate : 448 Kbps
Channel(s) : 6 channels
Channel positions : Front: L C R, Side: L R, LFE
Sampling rate : 48.0 KHz
Bit depth : 16 bits
Compression mode : Lossy
Stream size : 286 MiB (19%)
Alignment : Split accross interleaves
Interleave, duration : 42 ms (1.00 video frame)
Interleave, preload duration : 500 ms
Title : Dub

Знаете ли вы, что...

Матвей (Гоша Куценко) в фильме говорит, что Москва-река течет на север Москвы, на самом деле, верно обратное.
По рации сообщается, что у причала стоит Атомная подводная лодка К-152 «Нерпа», однако её осадка составляет 9,7 м, а гарантированная глубина судового хода Москва-реки в центре города — 3 м.
При приближении монстра возникает электростатическое поле высокой напряжённости, о чем говорит сцена притяжения волос девушки. При наличии такого поля вся пыль, бумага и различный мусор должны притягиваться к монстру, что делало бы его видимым в светлое время суток.
Только один троллейбус начинает двигаться при приближении пришельца.
Когда Натали в подводной лодке вернули отремонтированный сотовый телефон, на него поступило SMS-сообщение от её матери, но это невозможно, т.к. все базовые станции сотовой связи давно бы вышли из строя, как и вся электроника, попавшая в сильное электромагнитное поле во время работы. Так же, сама подлодка способна экранировать радиосигнал, поэтому телефон мог быть просто не обнаружен даже работающей базовой станцией.
ПРИЯТНОГО ПРОСМОТРА!-

_________________
Показать сообщения:    

Текущее время: Сегодня 03:01

Часовой пояс: GMT



Вы не можете начинать темы
Вы не можете отвечать на сообщения
Вы не можете редактировать свои сообщения
Вы не можете удалять свои сообщения
Вы не можете голосовать в опросах
Вы не можете прикреплять файлы к сообщениям
Вы не можете скачивать файлы