Важное объявление!
У Нас Все раздачи мультитрекерные, при нуле пиров в релизах, можете смело вставать на закачку!
 
Автор Сообщение

mihis

[Профиль] [ЛС]

Ущерб / Damage
«Всепоглощающая страсть, несмотря ни на что...»

Год выпуска: 1992
Страна: Франция, Великобритания, Nouvelles Editions de Films (NEF), Skreba Films, StudioCanal
Жанр: Драма, мелодрама
Продолжительность: 01:51:11
Перевод: Профессиональный (многоголосый, закадровый) + Оригинал
Субтитры: нет
Режиссер: Луи Маль
В ролях: Джереми Айронс, Жюльетт Бинош, Миранда Ричардсон, Руперт Грейвз, Иэн Бэннен, Петер Стормаре, Джемма Кларк, Джулиан Феллоуз, Лесли Карон, Тони Дойл
Описание: Стивен Флеминг и Анна Бартон — совершено разные на первый взгляд люди. Он — пожилой высокопоставленный дипломат, любящий семьянин и отец. Она — молодая скромная предпринимательница, ведущая замкнутый образ жизни. Тем не менее они полюбили друг друга с первого взгляда. Не в силах сопротивляться нахлынувшим чувствам, Стивен полностью отдается всепоглощающей страсти, несмотря на семью, положение в обществе и тот немаловажный факт, что Анна является невестой… его же собственного сына.

Качество: DVDRip
Формат: AVI
Видео кодек: XviD
Аудио кодек: AC3
Видео: 704x416 (1.69:1), 25 fps, XviD build 50 ~2042 kbps avg, 0.28 bit/pixel
Аудио #1: 48 kHz, AC3 Dolby Digital, 6 ch, ~384.00 kbps avg MVO
Аудио #2: 48 kHz, AC3 Dolby Digital, 6 ch, ~384.00 kbps avg Eng

Награды

Оскар, 1993 год
Номинации (1):
Лучшая женская роль второго плана (Миранда Ричардсон)
Золотой глобус, 1993 год
Номинации (1):
Лучшая женская роль второго плана (Миранда Ричардсон)
Британская академия, 1993 год
Победитель (1):
Лучшая женская роль второго плана (Миранда Ричардсон)
Сезар, 1993 год
Номинации (1):
Лучшая актриса (Жюльет Бинош)

MediaInfo

Общее
Полное имя : D:\Video\usherb.avi
Формат : AVI
Формат/Информация : Audio Video Interleave
Профиль формата : OpenDML
Размер файла : 2,19 Гбайт
Продолжительность : 1 ч. 51 м.
Общий поток : 2817 Кбит/сек
Программа кодирования : VirtualDubMod 1.5.10.2 (build 2540/release)
Библиотека кодирования : VirtualDubMod build 2540/release
Видео
Идентификатор : 0
Формат : MPEG-4 Visual
Профиль формата : Advanced Simple@L5
Параметр BVOP формата : 2
Параметр QPel формата : Нет
Параметр GMC формата : Без точки перехода
Параметр матрицы формата : Выборочная
Идентификатор кодека : XVID
Идентификатор кодека/Подсказка : XviD
Продолжительность : 1 ч. 51 м.
Битрейт : 2031 Кбит/сек
Ширина : 704 пикселя
Высота : 416 пикселей
Соотношение сторон : 1,692
Частота кадров : 25,000 кадров/сек
Цветовое пространство : YUV
Субдискретизация насыщенности : 4:2:0
Битовая глубина : 8 бит
Тип развёртки : Прогрессивная
Метод сжатия : С потерями
Бит/(Пиксели*Кадры) : 0.277
Размер потока : 1,58 Гбайт (72%)
Библиотека кодирования : XviD 1.2.1 (UTC 2008-12-04)
Аудио #1
Идентификатор : 1
Формат : AC-3
Формат/Информация : Audio Coding 3
Расширение режима : CM (complete main)
Параметр Endianness формата : Big
Идентификатор кодека : 2000
Продолжительность : 1 ч. 51 м.
Вид битрейта : Постоянный
Битрейт : 384 Кбит/сек
Каналы : 6 каналов
Расположение каналов : Front: L C R, Side: L R, LFE
Частота : 48,0 КГц
Битовая глубина : 16 бит
Метод сжатия : С потерями
Задержка видео : 8 с. 0 мс.
Размер потока : 305 Мбайт (14%)
Выравнивание : Разделение по промежуткам
Продолжительность промежутка : 40 мс. (1,00 видеокадр)
Время предзагрузки промежутка : 500 мс.
Аудио #2
Идентификатор : 2
Формат : AC-3
Формат/Информация : Audio Coding 3
Расширение режима : CM (complete main)
Параметр Endianness формата : Big
Идентификатор кодека : 2000
Продолжительность : 1 ч. 51 м.
Вид битрейта : Постоянный
Битрейт : 384 Кбит/сек
Каналы : 6 каналов
Расположение каналов : Front: L C R, Side: L R, LFE
Частота : 48,0 КГц
Битовая глубина : 16 бит
Метод сжатия : С потерями
Задержка видео : 8 с. 0 мс.
Размер потока : 305 Мбайт (14%)
Выравнивание : Разделение по промежуткам
Продолжительность промежутка : 40 мс. (1,00 видеокадр)
Время предзагрузки промежутка : 500 мс.
 
Показать сообщения:    

Текущее время: Сегодня 09:52

Часовой пояс: GMT



Вы не можете начинать темы
Вы не можете отвечать на сообщения
Вы не можете редактировать свои сообщения
Вы не можете удалять свои сообщения
Вы не можете голосовать в опросах
Вы не можете прикреплять файлы к сообщениям
Вы не можете скачивать файлы