Важное объявление!
У Нас Все раздачи мультитрекерные, при нуле пиров в релизах, можете смело вставать на закачку!
 
Автор Сообщение

HUNTER

Стаж:
4 года 4 месяца
Сообщений:
56790

Репутация: 101

[+] [-]
Вне форума [Профиль] [ЛС]


Учимcя читать и пиcать-Год выпуска: 2009
Страна: Россия
Сайт производителя: отсутствуeт
Тематика: Учебные видео для детей и родителей
Тип материала: Обучающее видео
Продолжительность: 00:55:21
Автор: Игорь Пелинский
Язык: Русский
Субтитры: отсутствуют-Описание: Вот и подрос ваш малыш, и пришла пора задумываться всерьез о его обучении. Специалисты считают, что возраст с 3 до 6 лет – самый эффективный для начала занятий по чтению и письму. Любой мамочке под силу организовать такие занятия с малышом дома, не отдавая в детское учреждение. И вот тут перед нами встает главный вопрос – а как научить читать и писать малыша, какой метод обучения выбрать?
Сегодня на книжных полках вы найдете множество различных букварей, а в Интернете – любопытные необычные пособия, по которым можно начать занятия. Многие мамы в растерянности: каждый автор считает свою методику уникальной и самой лучшей. Но несмотря на изобилие таких товаров, у каждого из них есть свои плюсы и минусы.
Давайте попробуем разобраться в методиках обучения чтению и письму и сделать занятия с малышом увлекательными и полезными. Пусть ваши занятия с малышом будут наполнены радостью, смехом и удивительными открытиями.
-Качество: DVD5
Формат: DVD Video
Видео кодек: MPEG2
Аудио кодек: AC3
Видео: 720x576 (PAL 16:9), 25 fps, MPEG-2, ~6860 kbps avg, 0.662 bit/pixel
Аудио: 48 kHz, AC-3, 2 ch, 192.00 kbps avg-

MediaInfo

Код: copyText_writeLink('this.parentNode.parentNode.nextSibling.nextSibling'); Общее
Формат : MPEG-PS
Общий поток : 7195 Кбит/сек
Видео
Идентификатор : 224 (0xE0)
Формат : MPEG Video
Версия формата : Version 2
Профиль формата : Main@Main
Параметр BVOP формата : Да
Параметр матрицы формата : По умолчанию
Параметры GOP формата : M=3, N=12
Вид битрейта : Переменный
Битрейт : 6860 Кбит/сек
Номинальный битрейт : 8000 Кбит/сек
Ширина : 720 пикс.
Высота : 576 пикс.
Соотношение сторон : 16:9
Частота кадров : 25,000 кадр/сек
Стандарт вещания : PAL
Цветовое пространство : YUV
Подвыборка цветности : 4:2:0
Битовая глубина : 8 бит
Тип развёртки : Чересстрочная
Порядок развёртки : Нижнее поле первое
Метод сжатия : С потерями
Бит/(Пиксели*Кадры) : 0.662
Размер потока : 976 Мбайт (95%)
Аудио
Идентификатор : 128 (0x80)
Формат : AC-3
Формат/Информация : Audio Coding 3
Расширение режима : CM (complete main)
Вид битрейта : Постоянный
Битрейт : 192 Кбит/сек
Канал(ы) : 2 канала(ов)
Расположение каналов : Front: L R
Частота : 48,0 КГц
Битовая глубина : 16 бит
Метод сжатия : С потерями
Задержка видео : -80 мс.
Размер потока : 27,3 Мбайт (3%)

Скриншоты

-

_________________
Показать сообщения:    

Текущее время: Сегодня 12:28

Часовой пояс: GMT



Вы не можете начинать темы
Вы не можете отвечать на сообщения
Вы не можете редактировать свои сообщения
Вы не можете удалять свои сообщения
Вы не можете голосовать в опросах
Вы не можете прикреплять файлы к сообщениям
Вы не можете скачивать файлы