Важное объявление!
У Нас Все раздачи мультитрекерные, при нуле пиров в релизах, можете смело вставать на закачку!
 
Автор Сообщение

mihis

[Профиль] [ЛС]

Ученик мастера / Tai Chi 0«Рождение легенды»
Год выпуска: 2012
Страна: Китай, Diversion Pictures, Huayi Brothers & Taihe Film Investment
Жанр: Боевик, драма
Продолжительность: 01:38:07
Перевод: Профессиональный (полное дублирование)
Субтитры: нет
Режиссер: Стивен Фанг
В ролях: Стивен Фанг, Юань Сяочао, Тони Люн Ка Фай, Эдди Пэн, Ки Шу, Дэниэл Ву, Стэнли Фунг, Пьер Бурдо, Пол Филип Кларк, Кеони Эверингтон, Анджела Бейби
Описание: Необыкновенно одарённого ребёнка Яна все считают местным дурачком, но он не обращает на это внимание. Ян отправляется в затерянную в горах деревню мастеров кунг-фу, чтобы изучить тайны этой борьбы. Но, он недостоин обучаться великому искусству — в первом же бою он проиграл девушке. Только местный нищий старик сочувствует ему и берется научить его. Эти навыки ему пригодятся в борьбе с злодеями, чтобы вернуть доверие жителей деревни и завоевать сердце красавицы Юнь. Ведь нищий старик, на самом деле, великий мастер кунгфу и отец Юнь. Битва начинается!

Качество: HDRip
Формат: AVI
Видео кодек: XviD
Аудио кодек: AC3
Видео: 720x304 (2.37:1), 23.976 fps, XviD build 50 ~1926 kbps avg, 0.37 bit/pixel
Аудио: 48 kHz, AC3 Dolby Digital, 2/0 (L,R) ch, ~192 kbps

MediaInfo

Общее
Полное имя : D:\Video\Y4enik.mastera.2012.D.HDRip.1493Mb.avi
Формат : AVI
Формат/Информация : Audio Video Interleave
Размер файла : 1,46 Гбайт
Продолжительность : 1 ч. 38 м.
Общий поток : 2128 Кбит/сек
Программа кодирования : VirtualDubMod 1.5.10.2 (build 2540/release)
Библиотека кодирования : VirtualDubMod build 2540/release
Видео
Идентификатор : 0
Формат : MPEG-4 Visual
Профиль формата : Advanced Simple@L5
Параметр BVOP формата : 2
Параметр QPel формата : Нет
Параметр GMC формата : Без точки перехода
Параметр матрицы формата : Default (MPEG)
Идентификатор кодека : XVID
Идентификатор кодека/Подсказка : XviD
Продолжительность : 1 ч. 38 м.
Битрейт : 1927 Кбит/сек
Ширина : 720 пикселей
Высота : 304 пикселя
Соотношение сторон : 2,35:1
Частота кадров : 23,976 кадра/сек
Цветовое пространство : YUV
Субдискретизация насыщенности : 4:2:0
Битовая глубина : 8 бит
Тип развёртки : Прогрессивная
Метод сжатия : С потерями
Бит/(Пиксели*Кадры) : 0.367
Размер потока : 1,32 Гбайт (91%)
Библиотека кодирования : XviD 1.2.1 (UTC 2008-12-04)
Аудио
Идентификатор : 1
Формат : AC-3
Формат/Информация : Audio Coding 3
Расширение режима : CM (complete main)
Параметр Endianness формата : Big
Идентификатор кодека : 2000
Продолжительность : 1 ч. 38 м.
Вид битрейта : Постоянный
Битрейт : 192 Кбит/сек
Каналы : 2 канала
Расположение каналов : Front: L R
Частота : 48,0 КГц
Битовая глубина : 16 бит
Метод сжатия : С потерями
Размер потока : 135 Мбайт (9%)
Выравнивание : Разделение по промежуткам
Продолжительность промежутка : 42 мс. (1,00 видеокадр)
Время предзагрузки промежутка : 500 мс.
 
Показать сообщения:    

Текущее время: Сегодня 15:23

Часовой пояс: GMT



Вы не можете начинать темы
Вы не можете отвечать на сообщения
Вы не можете редактировать свои сообщения
Вы не можете удалять свои сообщения
Вы не можете голосовать в опросах
Вы не можете прикреплять файлы к сообщениям
Вы не можете скачивать файлы