Важное объявление!
У Нас Все раздачи мультитрекерные, при нуле пиров в релизах, можете смело вставать на закачку!
 
Автор Сообщение

HUNTER

Стаж:
4 года 4 месяца
Сообщений:
56765

Репутация: 101

[+] [-]
Вне форума [Профиль] [ЛС]

Уходя в отрыв / Breaking Away«Somewhere between growing up and settling down...»
Страна: США
Жанр: драма, комедия, спорт
Год выпуска: 1979
Продолжительность: 01:36:06
Перевод: Профессиональный (многоголосый закадровый) 1 канал
Cубтитры: нет
Режиссер: Питер Йетс / Питер Йетс
В ролях: Деннис Кристофер, Деннис Куэйд, Дэниел Стерн, Джеки Эрл Хейли, Барбара Барри, Пол Дули, Робин Дугласс, Харт Бокнер, Эми Райт, Питер Мэлоуни
Описание: Компания двадцатилетних романтиков делают все, что можно, лишь бы избежать нависшей над ними угрозы взросления.
Сэмпл: http://rusfolder.com/41961239

Тип релиза: HDTV 1080i
Контейнер: TS
Видео: AVC/H.264, PAL, 1920х1080 (16:9), 25 fps, 11.9 Mbps
Аудио: русский, MP-2, 48000 Hz, 192 Кбит/сек, 2 ch

MediaInfo

General
ID : 1 (0x1)
Complete name : D:\Уходя в отрыв.ts
Format : MPEG-TS
File size : 8.52 GiB
Duration : 1h 36mn
Overall bit rate mode : Variable
Overall bit rate : 12.7 Mbps
Maximum Overall bit rate : 35.5 Mbps
Video
ID : 4113 (0x1011)
Menu ID : 1 (0x1)
Format : AVC
Format/Info : Advanced Video Codec
Format profile : Main@L4.0
Format settings, CABAC : Yes
Format settings, ReFrames : 3 frames
Codec ID : 27
Duration : 1h 36mn
Bit rate mode : Variable
Bit rate : 11.9 Mbps
Maximum bit rate : 40.0 Mbps
Width : 1 920 pixels
Height : 1 080 pixels
Display aspect ratio : 16:9
Frame rate : 25.000 fps
Standard : Component
Color space : YUV
Chroma subsampling : 4:2:0
Bit depth : 8 bits
Scan type : Interlaced
Scan order : Top Field First
Bits/(Pixel*Frame) : 0.229
Stream size : 7.97 GiB (94%)
Audio
ID : 4352 (0x1100)
Menu ID : 1 (0x1)
Format : MPEG Audio
Format version : Version 1
Format profile : Layer 2
Codec ID : 4
Duration : 1h 36mn
Bit rate mode : Constant
Bit rate : 192 Kbps
Channel(s) : 2 channels
Sampling rate : 48.0 KHz
Compression mode : Lossy
Stream size : 132 MiB (2%)
Language : Russian

Скриншот c названием фильма

Скриншоты


_________________
Показать сообщения:    

Текущее время: Сегодня 21:45

Часовой пояс: GMT



Вы не можете начинать темы
Вы не можете отвечать на сообщения
Вы не можете редактировать свои сообщения
Вы не можете удалять свои сообщения
Вы не можете голосовать в опросах
Вы не можете прикреплять файлы к сообщениям
Вы не можете скачивать файлы