Важное объявление!
У Нас Все раздачи мультитрекерные, при нуле пиров в релизах, можете смело вставать на закачку!
 
Автор Сообщение

HUNTER

Стаж:
4 года 4 месяца
Сообщений:
56798

Репутация: 101

[+] [-]
Вне форума [Профиль] [ЛС]

Утонченная Нежность / Хирург / Exquisite Tenderness / Surgeon
Страна: США Германия Великобритания
Жанр: ужасы, триллер
Год выпуска: 1995
Продолжительность: 01:39:40
Перевод: Профессиональный (многоголосый закадровый)
Перевод1: Авторский (одноголосый закадровый) Гаврилов
Перевод2: Авторский (одноголосый закадровый) Визгунов
Cубтитры: нет
Режиссер: Карл Шенкель /Carl Schenkel
В ролях: Изабель Глэссер, Джеймс Римар, Малкольм МакДауэлл, Шон Хаберли, Питер Бойл, Чарльз Дэнс, Беверли Тодд, Charles Bailey-Gates, Уолтер Олкевич, Мазер Лав
Описание: `Утонченная нежность` — медицинский термин, означающий предел человеческой способности превозмогать нестерпимую боль. Именно до такого состояния доводит свои жертвы маньяк — профессор, чтобы извлечь из мозга необходимую субстанцию для многократного усиления жизненной энергии.
Бонусы:факты о фильме, биографии актеров, ролики к фильмам ужасов.
Доп. информация: В меню при выборе RUSSIAN будет многоголосый перевод, при выборе ENGLISH Гаврилов. Визгунов и английский выбираются с пульта. Аудио MVO взял [url=viewtopic.php?t=2915027]здесь[/url]. За исходник и авторские переводы спасибо [url=profile.php?mode=viewprofile&u=8419131]*Jonathan*[/url]
Сэмпл: http://multi-up.com/446944
Тип релиза: DVD5 (Custom)
Формат: DVD-Video
Видео кодек: MPEG2
Аудио кодек: AC3
Видео: NTSC 4:3 (720x480) VBR, 29.970 кадр/сек, Чересстрочная
Аудио 1: 48 kHz, AC3 Dolby Digital, 2/0 (L,R) ch, 192 kbps, MVO
Аудио 2: 48 kHz, AC3 Dolby Digital, 2/0 (L,R) ch, 192 kbps, AVO (Гаврилов)
Аудио 3: 48 kHz, AC3 Dolby Digital, 2/0 (L,R) ch, 256 kbps, AVO (Визгунов)
Аудио 4: 48 kHz, AC3 Dolby Digital, 2/0 (L,R) ch, 256 kbps, Original, eng
Софт при пересборке: PgcDemux, MuxMan, DvdReMakePro, Adobe Audition, Sony Sound Forge

Cкриншоты настроек


Техническая информация

DVD-Info
Title: Utonchennaja_nejnost_DVD
Size: 3.73 Gb ( 3 913 968,00 KBytes ) - DVD-5
Enabled regions: 1, 2, 3, 4, 5, 6, 7, 8
VTS_01 :
Play Length: 01:39:40+00:00:12+00:00:19
Video: NTSC 4:3 (720x480) VBR
Audio:
Russian (Dolby AC3, 2 ch)
Russian (Dolby AC3, 2 ch)
Russian (Dolby AC3, 2 ch)
English (Dolby AC3, 2 ch)
VTS_02 :
Play Length: 00:01:11+00:01:27+00:01:39
Video: NTSC 4:3 (720x480) VBR
Audio:
Russian (Dolby AC3, 2 ch)
English (Dolby AC3, 2 ch)
VTS_03 :
Play Length: 00:02:40
Video: NTSC 16:9 (720x480) VBR, Auto Letterboxed
Audio:
Russian (Dolby AC3, 2 ch)
English (Dolby AC3, 2 ch)
* Menus Information *
VIDEO_TS Menu
Video:
NTSC 4:3 (720x480) VBR
English Language Unit :
Title Menu
VTS_01 Menu
Video:
NTSC 4:3 (720x480) VBR
English Language Unit :
Root Menu
VTS_02 Menu
Video:
NTSC 4:3 (720x480) VBR
Auto Pan&Scan, Auto Letterboxed
English Language Unit :
Root Menu
VTS_03 Menu
Video:
NTSC 4:3 (720x480) VBR
Auto Pan&Scan, Auto Letterboxed
English Language Unit :
Root Menu

MediaInfo на примере VTS_01_1.VOB

D:\Downloads\utonhennay nejnost_[torrents.ru]\VIDEO_TS\VTS_01_1.VOB
General
Complete name : D:\Downloads\utonhennay nejnost_[torrents.ru]\VIDEO_TS\VTS_01_1.VOB
Format : MPEG-PS
File size : 1 024 MiB
Duration : 26mn 25s
Overall bit rate : 5 418 Kbps
Video #224
ID : 224 (0xE0)
Format : MPEG Video
Format version : Version 2
Format profile : Main@Main
Format settings, BVOP : Yes
Format settings, Matrix : Default
Format_Settings_GOP : M=3, N=16
Duration : 26mn 25s
Bit rate mode : Variable
Bit rate : 4 179 Kbps
Nominal bit rate : 4 100 Kbps
Width : 720 pixels
Height : 480 pixels
Display aspect ratio : 4:3
Frame rate : 29.970 fps
Standard : NTSC
Resolution : 8 bits
Colorimetry : 4:2:0
Scan type : Interlaced
Scan order : Top Field First
Bits/(Pixel*Frame) : 0.403
Stream size : 790 MiB (77%)
Audio #128
ID : 128 (0x80)
Format : AC-3
Format/Info : Audio Coding 3
Format_Settings_ModeExtension : CM (complete main)
Duration : 26mn 25s
Bit rate mode : Constant
Bit rate : 256 Kbps
Channel(s) : 2 channels
Channel positions : Front: L R
Sampling rate : 48.0 KHz
Stream size : 48.4 MiB (5%)
Audio #129
ID : 129 (0x81)
Format : AC-3
Format/Info : Audio Coding 3
Format_Settings_ModeExtension : CM (complete main)
Duration : 26mn 25s
Bit rate mode : Constant
Bit rate : 256 Kbps
Channel(s) : 2 channels
Channel positions : Front: L R
Sampling rate : 48.0 KHz
Stream size : 48.4 MiB (5%)
Audio #130
ID : 130 (0x82)
Format : AC-3
Format/Info : Audio Coding 3
Format_Settings_ModeExtension : CM (complete main)
Duration : 26mn 25s
Bit rate mode : Constant
Bit rate : 256 Kbps
Channel(s) : 2 channels
Channel positions : Front: L R
Sampling rate : 48.0 KHz
Stream size : 48.4 MiB (5%)
Audio #131
ID : 131 (0x83)
Format : AC-3
Format/Info : Audio Coding 3
Format_Settings_ModeExtension : CM (complete main)
Duration : 26mn 25s
Bit rate mode : Constant
Bit rate : 256 Kbps
Channel(s) : 2 channels
Channel positions : Front: L R
Sampling rate : 48.0 KHz
Stream size : 48.4 MiB (5%)

_________________
Показать сообщения:    

Текущее время: Сегодня 01:02

Часовой пояс: GMT



Вы не можете начинать темы
Вы не можете отвечать на сообщения
Вы не можете редактировать свои сообщения
Вы не можете удалять свои сообщения
Вы не можете голосовать в опросах
Вы не можете прикреплять файлы к сообщениям
Вы не можете скачивать файлы