Важное объявление!
У Нас Все раздачи мультитрекерные, при нуле пиров в релизах, можете смело вставать на закачку!
 
Автор Сообщение

HUNTER

Стаж:
4 года 4 месяца
Сообщений:
56755

Репутация: 101

[+] [-]
Вне форума [Профиль] [ЛС]

Уроки полета / Flying Lessons
Страна: США
Жанр: драма
Год выпуска: 2010
Продолжительность: 01:39:21
Перевод: Профессиональный (многоголосый закадровый)
Cубтитры: нет
Режиссер: Дерек Магияр / Derek Magyar
В ролях: Мэгги Грэйс, Кэри Элвис, Джоанна Кэссиди, Джонатан Такер, Йен Энтони Дэйл, Никки Делоач, Хэл Холбрук, Рик Гонсалес, Кристин Лати, Мэгги Кастл
Описание:
Картина, снятая в жанре драмы, рассказывает о молодой 25-летней женщине по имени Софи Конвэй, жизнь которой оказалась на распутье. Софи возвращается в родной городок, который хотела бы навсегда оставить в прошлом. Дома она встречается с бывшими друзьями и любовниками, а также пытается разобраться в отношениях со своей матерью, осложнившимися после самоубийства отца. Кроме этого, путь Софи пересекается с Гарри Плезантом — человеком, страдающим болезнью Альцгеймера, который учит героиню ценить прошлое и воспоминания, связанные с ним.
Доп. информация: Запись со спутника телеканал Кинопоказ HD-1 (Триколор ТВ)

Сэмпл: http://sendfile.su/1006813
Тип релиза: HDTV 1080p
Контейнер: TS
Видео: AVC/H.264, PAL, 1920x1080 (16:9), 8200 Кбит/сек, 25.000 fps
Аудио: русский, MP-2, 48000 Hz, 192 Кбит/сек, 2 ch

MediaInfo

Видео
Идентификатор : 224 (0xE0)
Идентификатор меню : 1 (0x1)
Формат : AVC
Формат/Информация : Advanced Video Codec
Профиль формата : High@L4.1
Параметр CABAC формата : Да
Параметр ReFrames формата : 3 кадра
Идентификатор кодека : 27
Продолжительность : 1 ч. 39 м.
Вид битрейта : Постоянный
Битрейт : 8200 Кбит/сек
Ширина : 1920 пикселей
Высота : 1080 пикселей
Соотношение сторон : 16:9
Частота кадров : 25,000 кадров/сек
Стандарт вещания : PAL
Цветовое пространство : YUV
Субдискретизация насыщенности : 4:2:0
Битовая глубина : 8 бит
Тип развёртки : Прогрессивная
Бит/(Пиксели*Кадры) : 0.158
Размер потока : 5,59 Гбайт (93%)
Основные цвета : BT.709
Характеристики трансфера : BT.709
Коэффициенты матрицы : BT.709
Аудио
Идентификатор : 192 (0xC0)
Идентификатор меню : 1 (0x1)
Формат : MPEG Audio
Версия формата : Version 1
Профиль формата : Layer 2
Идентификатор кодека : 3
Продолжительность : 1 ч. 39 м.
Вид битрейта : Постоянный
Битрейт : 192 Кбит/сек
Каналы : 2 канала
Частота : 48,0 КГц
Метод сжатия : С потерями
Размер потока : 136 Мбайт (2%)
Язык : Russian

Скриншот c названием фильма

Скриншоты


_________________
Показать сообщения:    

Текущее время: Сегодня 11:48

Часовой пояс: GMT



Вы не можете начинать темы
Вы не можете отвечать на сообщения
Вы не можете редактировать свои сообщения
Вы не можете удалять свои сообщения
Вы не можете голосовать в опросах
Вы не можете прикреплять файлы к сообщениям
Вы не можете скачивать файлы