Важное объявление!
У Нас Все раздачи мультитрекерные, при нуле пиров в релизах, можете смело вставать на закачку!
Статистика раздачи
Размер:  569 MB   |    Зарегистрирован:  3 года 1 месяц   |    Скачан:  0 раз    |   

Полного источника не было: 2 года 8 месяцев

 
     
 
 
 
Автор Сообщение

димитри37

Стаж:
3 года 8 месяцев
Сообщений:
1237

Репутация: 127

[+] [-]
Вне форума [Профиль] [ЛС]

Уральские пельмени. Люди в белых зарплатах
-Год выпуска: 2013
Страна: Россия
Жанр: Юмористическое шоу
Продолжительность: ~ 00:47:00
Перевод: Не требуется-Описание: Весёлые парни в мандариновых рубашках не дадут соскучиться и подарят отличное настроение всей семье. У юмора «Уральских пельменей» нет возрастных ограничений, они избегают «шуток ниже пояса» и на их концертах пятилетние дети смеются рядом с 50-ти летними взрослыми. Новое комедийное шоу включает в себя как самостоятельные сценические истории, так и импровизации с залом, а также смешные сценки со звёздами, которые пришли посмотреть на любимую команду и неожиданно для себя оказались на сцене.-Участники: Юлия Михалкова, Сергей Калугин, Дмитрий Соколов, Дмитрий Бpекоткин, Андрей Рожков, Максим Ярица, Сергей Исаев, Вячеслав Мясников, Сергей Нетиевский, Сергей Ершов, Александр Попов-Качество: SATRip
Формат: AVI
Видео кодек: DivX
Аудио кодек: MP3
Видео: 720x400 (1.80:1), 25 fps, 1600 kbps avg
Аудио: 48 kHz, MPEG Layer 3, 2 ch, ~128.00 kbps avg

MI

Код:
General
Complete name                            : D:\Ljudi.v.belyh.zarplatah.01.avi
Format                                   : AVI
Format/Info                              : Audio Video Interleave
File size                                : 569 MiB
Duration                                 : 48mn 23s
Overall bit rate                         : 1 643 Kbps
Writing application                      : transcode-1.1.5
Video
ID                                       : 0
Format                                   : MPEG-4 Visual
Format settings, BVOP                    : Yes
Format settings, QPel                    : No
Format settings, GMC                     : No warppoints
Format settings, Matrix                  : Default (H.263)
Codec ID                                 : DX50
Codec ID/Hint                            : DivX 5
Duration                                 : 48mn 23s
Bit rate                                 : 1 502 Kbps
Width                                    : 720 pixels
Height                                   : 400 pixels
Display aspect ratio                     : 16:9
Frame rate                               : 25.000 fps
Color space                              : YUV
Chroma subsampling                       : 4:2:0
Bit depth                                : 8 bits
Scan type                                : Progressive
Compression mode                         : Lossy
Bits/(Pixel*Frame)                       : 0.209
Stream size                              : 520 MiB (91%)
Writing library                          : Intel(R) MPEG-4 encoder based on Intel(R) IPP 6.1 build 137.20[6.1.137.763]
Audio
ID                                       : 1
Format                                   : MPEG Audio
Format version                           : Version 1
Format profile                           : Layer 3
Mode                                     : Joint stereo
Mode extension                           : MS Stereo
Codec ID                                 : 55
Codec ID/Hint                            : MP3
Duration                                 : 48mn 23s
Bit rate mode                            : Constant
Bit rate                                 : 128 Kbps
Channel(s)                               : 2 channels
Sampling rate                            : 48.0 KHz
Compression mode                         : Lossy
Stream size                              : 44.3 MiB (8%)
Alignment                                : Aligned on interleaves
Interleave, duration                     : 24 ms (0.60 video frame)
Interleave, preload duration             : 48 ms
Writing library                          : LAME3.98.2

Скриншоты

- -
[iv-torrents.ru].t9363.torrent 
Торрент: Зарегистрирован   [ 2013-10-18 20:19 ]

Скачать .torrent

Скачать

12 KB

Статус: проверено
Скачан торрент файл: 190
Размер: 569 MB  ·  Тип торрента
Оценка релиза:  Средний балл: 0.0 (0 голосов, вы еще не оценили этот релиз)
Поблагодарили: Спасибо
 
Похожие темы

Пожертвовать руб.
Показать сообщения:    

Текущее время: Сегодня 04:08

Часовой пояс: GMT



Вы не можете начинать темы
Вы не можете отвечать на сообщения
Вы не можете редактировать свои сообщения
Вы не можете удалять свои сообщения
Вы не можете голосовать в опросах
Вы не можете прикреплять файлы к сообщениям
Вы можете скачивать файлы