Важное объявление!
У Нас Все раздачи мультитрекерные, при нуле пиров в релизах, можете смело вставать на закачку!
 
Автор Сообщение

HUNTER

Стаж:
4 года 4 месяца
Сообщений:
56734

Репутация: 101

[+] [-]
Вне форума [Профиль] [ЛС]

Упс… Ной уплыл!
Ooops! Noah is Gone...
«1 ковчег. 50,000 животных. Что могло пойти не так?»
-
Страна: Германия, Бельгия, Люксембург
Жанр: комедия, приключения
Продолжительность: 01:26:28
Год выпуска: 2015
Перевод: Профессиональный (дублированный) iTunes
Русские субтитры: нет
Режиссёр: Тоби Генкель / Toby Genkel, Шон МакКормак / Sean McCormack
Роли озвучивали: Дермот Магеннис, Каллум Малони, Тара Флинн, Пол Тайлак, Алан Стэнфорд, Эйлин Митен, Патрик Фицсимонс, Карла Бекер, Франциска Фриде-ОписаниеГрядет всемирный потоп, и старина Ной вот-вот отчалит. Самое время для зверей занять свои каюты. Но, увы, повезло не всем — кое-кто фейсконтроль не прошел. Теперь ему придется как следует постараться, чтобы перехитрить судьбу и заскочить на подножку уплывающего ковчега.-Сэмпл

IMDb: 5.60 (1360)
Качество: BDRip-AVC Blu-ray Disc - BLUEBIRD
Формат: MKV
Видео: AVC 3 284 Kbps 1136 x 614 (1.850) 24.000 fps
Аудио: AC-3 384 Kbps 6 channels, 48.0 KHz DUB iTunes
Аудио 2: AC-3 448 Kbps 6 channels, 48.0 KHz Eng
Субтитры: Нет

MI | Log

Log
x264 [info] frame I1143 Avg QP14.86 size110126
x264 [info] frame P29455 Avg QP16.42 size 33937
x264 [info] frame B93917 Avg QP18.75 size 11142
x264 [info] consecutive B-frames 3.0% 2.9% 17.0% 19.6% 15.3% 30.3% 4.5% 2.7% 1.5% 0.6% 0.7% 0.6% 0.3% 0.4% 0.5%
x264 [info] mb I I16..4 6.4% 76.0% 17.6%
x264 [info] mb P I16..4 0.8% 15.0% 2.0% P16..4 24.8% 26.8% 12.1% 2.3% 0.3% skip15.9%
x264 [info] mb B I16..4 0.2% 2.0% 0.3% B16..8 26.7% 17.4% 3.4% direct 4.6% skip45.3% L041.2% L144.1% BI14.7%
x264 [info] 8x8 transform intra82.4% inter55.0%
x264 [info] direct mvs spatial99.9% temporal0.1%
x264 [info] coded y,uvDC,uvAC intra 90.6% 86.8% 72.4% inter 20.5% 17.7% 6.4%
x264 [info] i16 v,h,dc,p 27% 12% 6% 55%
x264 [info] i8 v,h,dc,ddl,ddr,vr,hd,vl,hu 10% 11% 8% 9% 12% 11% 13% 11% 15%
x264 [info] i4 v,h,dc,ddl,ddr,vr,hd,vl,hu 15% 11% 6% 7% 14% 12% 13% 9% 12%
x264 [info] i8c dc,h,v,p 39% 28% 15% 17%
x264 [info] Weighted P-Frames Y2.3% UV1.5%
x264 [info] ref P L0 51.2% 10.2% 16.7% 5.8% 4.5% 3.1% 2.8% 1.5% 1.4% 1.2% 1.3% 0.3% 0.0%
x264 [info] ref B L0 72.3% 11.7% 5.6% 3.1% 2.2% 1.8% 1.5% 1.0% 0.6% 0.3%
x264 [info] ref B L1 91.9% 8.1%
x264 [info] kbs3349.07
x264 [total] encoded 124515 frames, 8.85 fps, 3349.07 kbs, duration 35430.17
Format : Matroska
Format version : Version 4 / Version 2
File size : 2.53 GiB
Duration : 1h 26mn
Overall bit rate : 4 182 Kbps
Encoded date : UTC 2015-10-17 13:39:03
Writing application : mkvmerge v6.7.0 ('Back to the Ground') 32bit built on Jan 8 2014 15:03:17
Writing library : libebml v1.3.0 + libmatroska v1.4.1
Video
ID : 1
Format : AVC
Format/Info : Advanced Video Codec
Format profile : High@L4.1
Format settings, CABAC : Yes
Format settings, ReFrames : 11 frames
Codec ID : V_MPEG4/ISO/AVC
Duration : 1h 26mn
Bit rate : 3 267 Kbps
Width : 1 136 pixels
Height : 614 pixels
Display aspect ratio : 1.85:1
Frame rate mode : Constant
Frame rate : 24.000 fps
Color space : YUV
Chroma subsampling : 4:2:0
Bit depth : 8 bits
Scan type : Progressive
Bits/(Pixel*Frame) : 0.195
Stream size : 1.97 GiB (78%)
Title : Ooops! Noah is Gone... (2015) [rutracker.org]
Writing library : x264 core 148 r2579kMod 73ae2d1
Encoding settings : cabac=1 / ref=11 / deblock=1:-2:-1 / analyse=0x3:0x133 / me=umh / subme=11 / psy=1 / fade_compensate=0.00 / psy_rd=1.00:0.05 / mixed_ref=1 / me_range=32 / chroma_me=1 / trellis=2 / 8x8dct=1 / cqm=0 / deadzone=21,11 / fast_pskip=0 / chroma_qp_offset=-3 / threads=12 / lookahead_threads=3 / sliced_threads=0 / nr=0 / decimate=1 / interlaced=0 / bluray_compat=0 / constrained_intra=0 / fgo=0 / bframes=14 / b_pyramid=2 / b_adapt=2 / b_bias=0 / direct=3 / weightb=1 / open_gop=0 / weightp=2 / keyint=250 / keyint_min=23 / scenecut=40 / intra_refresh=0 / rc_lookahead=80 / rc=crf / mbtree=0 / crf=17.3000 / qcomp=0.60 / qpmin=0 / qpmax=69 / qpstep=4 / vbv_maxrate=50000 / vbv_bufsize=62500 / crf_max=0.0 / nal_hrd=none / filler=0 / ip_ratio=1.40 / pb_ratio=1.30 / aq=3:0.90
Language : English
Default : Yes
Forced : No
Audio #1
ID : 2
Format : AC-3
Format/Info : Audio Coding 3
Mode extension : CM (complete main)
Format settings, Endianness : Big
Codec ID : A_AC3
Duration : 1h 26mn
Bit rate mode : Constant
Bit rate : 384 Kbps
Channel(s) : 6 channels
Channel positions : Front: L C R, Side: L R, LFE
Sampling rate : 48.0 KHz
Compression mode : Lossy
Stream size : 237 MiB (9%)
Title : DUB [[iTunes]
Language : Russian
Default : Yes
Forced : No
Audio #2
ID : 3
Format : AC-3
Format/Info : Audio Coding 3
Mode extension : CM (complete main)
Format settings, Endianness : Big
Codec ID : A_AC3
Duration : 1h 26mn
Bit rate mode : Constant
Bit rate : 448 Kbps
Channel(s) : 6 channels
Channel positions : Front: L C R, Side: L R, LFE
Sampling rate : 48.0 KHz
Compression mode : Lossy
Stream size : 277 MiB (11%)
Title : Original
Language : English
Default : No
Forced : No[/pre]

Скриншоты




_________________
Показать сообщения:    

Текущее время: Сегодня 16:54

Часовой пояс: GMT



Вы не можете начинать темы
Вы не можете отвечать на сообщения
Вы не можете редактировать свои сообщения
Вы не можете удалять свои сообщения
Вы не можете голосовать в опросах
Вы не можете прикреплять файлы к сообщениям
Вы не можете скачивать файлы