Важное объявление!
У Нас Все раздачи мультитрекерные, при нуле пиров в релизах, можете смело вставать на закачку!
 
Автор Сообщение

HUNTER

Стаж:
4 года 4 месяца
Сообщений:
56839

Репутация: 101

[+] [-]
Вне форума [Профиль] [ЛС]

--Уоррикер: Трилогия / The Worricker Trilogy--
Страна: Великобритания
Жанр: Драма, детектив, триллер
Год выпуска: 2011-2014
Продолжительность: ~94 min
Перевод: Одноголосый закадровый (Levelin)-Режиссёр: Дэвид Хэа / David Hare
В ролях: Билл Найи, Рейчел Вайс, Майкл Гэмбон, Вайнона Райдер, Кристофер Уокен, Хелена Бонем Картер, Руперт Грейвз, Рэйф Файнс-Описание: Общаясь с завистниками, бывшими женами и дочерью, агент Уоррикер собирает информацию угрожающую правительству. Политический триллер с немного детективным сюжетом периодически напоминает семейную драму, только происходящую на высоком уровне и расцвеченную английским юмором.-Перевод: SemiIsland, Михаил Васильев, Семён Ващенко
Озвучивал: Семён Ващенко-

Страница 8


-
-Cтраница 8 / Page Eight--
Страна: Великобритания
Жанр: Драма, детектив, триллер
Год выпуска: 2011
Продолжительность: 1:38:34
Перевод: Одноголосый закадровый (Levelin)
Cубтитры: нет-Режиссер: Дэвид Хэа / David Hare
В ролях: Билл Найи, Рейчел Вайс, Майкл Гэмбон, Рэйф Файнс-Описание: Неожиданная встреча на лестничной клетке с приятной молодой Ненси Пирпен кажется агенту секретной службы Джонни Уоррикеру не случайной. Однако больше опытного секретного агента беспокоит другая более серьезная случайность, лучший друг и начальник Бенедикт Барон внезапно умер, прежде оставив тоненькую, но опасную папку с секретной информацией. Общаясь с завистниками, бывшими женами и дочерью, агент Уоррикер собирает информацию об угрожающем правительству документе и все больше увлекается очаровательной соседкой. Триллер с немного детективным сюжетом периодически напоминает семейную драму, только происходящую на высоком уровне и расцвеченную английским юмором.-Перевод: SemiIsland
Озвучивал: Семён Ващенко-Сэмпл-Качество: HDTVRip
Формат: AVI
Видео: XviD, 720x304 (2,35:1), 25 fps, 1 919 Kbps
Аудио: AC3, 48 kHz, 192 kbps, 2 Channels- -MediaInfo
Format : AVI
Format/Info : Audio Video Interleave
File size : 1.46 GiB
Duration : 1h 38mn
Overall bit rate : 2 121 Kbps
Writing application : VirtualDubMod 1.5.10.2 (build 2540/release)
Writing library : VirtualDubMod build 2540/release
Video
ID : 0
Format : MPEG-4 Visual
Format profile : Advanced Simple@L5
Format settings, BVOP : 1
Format settings, QPel : No
Format settings, GMC : No warppoints
Format settings, Matrix : Default (MPEG)
Codec ID : XVID
Codec ID/Hint : XviD
Duration : 1h 38mn
Bit rate : 1 919 Kbps
Width : 720 pixels
Height : 304 pixels
Display aspect ratio : 2.35:1
Frame rate : 25.000 fps
Color space : YUV
Chroma subsampling : 4:2:0
Bit depth : 8 bits
Scan type : Progressive
Compression mode : Lossy
Bits/(Pixel*Frame) : 0.351
Stream size : 1.32 GiB (90%)
Writing library : XviD 1.2.1 (UTC 2008-12-04)
Audio
ID : 1
Format : AC-3
Format/Info : Audio Coding 3
Mode extension : CM (complete main)
Format settings, Endianness : Big
Codec ID : 2000
Duration : 1h 38mn
Bit rate mode : Constant
Bit rate : 192 Kbps
Channel(s) : 2 channels
Channel positions : Front: L R
Sampling rate : 48.0 KHz
Bit depth : 16 bits
Compression mode : Lossy
Stream size : 135 MiB (9%)
Alignment : Split accross interleaves

Скриншоты

Теркс и Кайкос


-
-Теркс и Кайкос / Turks & Caicos--
Страна: Великобритания
Жанр: Драма, детектив, триллер
Год выпуска: 2014
Продолжительность: 01:34:38
Перевод: Одноголосый закадровый (Levelin)
Cубтитры: нет-Режиссер: Дэвид Хэа / David Hare
В ролях: Билл Найи, Вайнона Райдер, Кристофер Уокен, Хелена Бонем Картер, Руперт Грейвз, Рэйф Файнс-Описание: После событий первого фильма, «Страница 8», офицер британской контрразведки Джонни Уоррикер залёг на дно, обитая на островах Теркс и Кайкос в Карибском море. Однажды с ним на связь выйдет агент ЦРУ, из-за которого Уоррикер окажется в компании сомнительных американских бизнесменов. На утро одного из них найдут мёртвым, а в деле снова окажется замешан британский премьер-министр Алек Бизли .-Перевод: Михаил Васильев, Семён Ващенко
Озвучивал: Семён Ващенко-Сэмпл-Качество видео: HDTVRip
Формат видео: AVI
Видео: XviD, 720x304 (2,35:1), 25 fps, 2 016 Kbps
Аудио: AC3, 48 kHz, 192 kbps, 2 Channels- -MediaInfo
Format : AVI
Format/Info : Audio Video Interleave
File size : 1.47 GiB
Duration : 1h 34mn
Overall bit rate : 2 217 Kbps
Writing application : VirtualDubModRus 1.5.10.2 (build 2542/release)
Writing library : VirtualDubMod build 2542/release
Video
ID : 0
Format : MPEG-4 Visual
Format profile : Advanced Simple@L5
Format settings, BVOP : 1
Format settings, QPel : No
Format settings, GMC : No warppoints
Format settings, Matrix : Default (MPEG)
Codec ID : XVID
Codec ID/Hint : XviD
Duration : 1h 34mn
Bit rate : 2 016 Kbps
Width : 720 pixels
Height : 304 pixels
Display aspect ratio : 2.35:1
Frame rate : 25.000 fps
Color space : YUV
Chroma subsampling : 4:2:0
Bit depth : 8 bits
Scan type : Progressive
Compression mode : Lossy
Bits/(Pixel*Frame) : 0.368
Stream size : 1.33 GiB (91%)
Writing library : XviD 1.2.1 (UTC 2008-12-04)
Audio
ID : 1
Format : AC-3
Format/Info : Audio Coding 3
Mode extension : CM (complete main)
Format settings, Endianness : Big
Codec ID : 2000
Duration : 1h 34mn
Bit rate mode : Constant
Bit rate : 192 Kbps
Channel(s) : 2 channels
Channel positions : Front: L R
Sampling rate : 48.0 KHz
Bit depth : 16 bits
Compression mode : Lossy
Stream size : 130 MiB (9%)
Alignment : Split accross interleaves
Interleave, duration : 40 ms (1.00 video frame)
Interleave, preload duratio : 500 ms

Скриншот c названием фильма

Скриншоты

Соленое поле боя


-
-Солёное поле боя / Salting the Battlefield--
Страна: Великобритания
Жанр: Драма, детектив, триллер
Год выпуска: 2014
Продолжительность: 01:31:42
Перевод: Одноголосый закадровый (Levelin)
Cубтитры: нет-Режиссер: Дэвид Хэа / David Hare
В ролях: Билл Найи, Хелена Бонем Картер, Руперт Грейвз, Рэйф Файнс-Описание: В центре сюжета детективной драмы два спецагента Джонни Уоррикер и Марго Тирел, которые находятся в Европе в бегах. По их следу идет МИ-6. Они понимают, что так не может продолжаться всю жизнь и осознают, что их вот-вот могут обнаружить. Единственный способ разрешить эту дилемму это вернуться в Великобританию и встретиться с премьер-министром.-Перевод: Михаил Васильев, Семён Ващенко
Озвучивал: Семён Ващенко-Сэмпл-Качество видео: HDTVRip
Формат видео: AVI
Видео: XviD, 720x304 (2,35:1), 25 fps, 2 075 Kbps
Аудио: AC3, 48 kHz, 192 kbps, 2 Channels- -MediaInfo
Format : AVI
Format/Info : Audio Video Interleave
File size : 1.46 GiB
Duration : 1h 31mn
Overall bit rate : 2 277 Kbps
Writing application : VirtualDubModRus 1.5.10.2 (build 2542/release)
Writing library : VirtualDubMod build 2542/release
Video
ID : 0
Format : MPEG-4 Visual
Format profile : Advanced Simple@L5
Format settings, BVOP : 1
Format settings, QPel : No
Format settings, GMC : No warppoints
Format settings, Matrix : Default (MPEG)
Codec ID : XVID
Codec ID/Hint : XviD
Duration : 1h 31mn
Bit rate : 2 075 Kbps
Width : 720 pixels
Height : 304 pixels
Display aspect ratio : 2.35:1
Frame rate : 25.000 fps
Color space : YUV
Chroma subsampling : 4:2:0
Bit depth : 8 bits
Scan type : Progressive
Compression mode : Lossy
Bits/(Pixel*Frame) : 0.379
Stream size : 1.33 GiB (91%)
Writing library : XviD 1.2.1 (UTC 2008-12-04)
Audio
ID : 1
Format : AC-3
Format/Info : Audio Coding 3
Mode extension : CM (complete main)
Format settings, Endianness : Big
Codec ID : 2000
Duration : 1h 31mn
Bit rate mode : Constant
Bit rate : 192 Kbps
Channel(s) : 2 channels
Channel positions : Front: L R
Sampling rate : 48.0 KHz
Bit depth : 16 bits
Compression mode : Lossy
Stream size : 126 MiB (8%)
Alignment : Split accross interleaves
Interleave, duration : 40 ms (1.00 video frame)
Interleave, preload duratio : 500 ms

Скриншот c названием фильма

Скриншоты


_________________
Показать сообщения:    

Текущее время: Сегодня 22:33

Часовой пояс: GMT



Вы не можете начинать темы
Вы не можете отвечать на сообщения
Вы не можете редактировать свои сообщения
Вы не можете удалять свои сообщения
Вы не можете голосовать в опросах
Вы не можете прикреплять файлы к сообщениям
Вы не можете скачивать файлы