Важное объявление!
У Нас Все раздачи мультитрекерные, при нуле пиров в релизах, можете смело вставать на закачку!
 
Автор Сообщение

HUNTER

Стаж:
4 года 4 месяца
Сообщений:
56755

Репутация: 101

[+] [-]
Вне форума [Профиль] [ЛС]

Университет монстров / Monsters University
«Самый страшный универ в мире»
-
Страна: США
Жанр: фэнтези, комедия, семейный, мультфильм
Продолжительность: 01:44:17
Год выпуска: 2013
Перевод: Профессиональный (дублированный)
Русские субтитры: нет-Режиссёр:
Дэн Скэнлон / Dan Scanlon-Роли озвучивали:
Джон Гудмен (Сергей Паршин), Билли Кристал (Олег Куликович), Стив Бушеми (Евгений Дятлов), Хелен Миррен (Людмила Максакова), Питер Сон (Виталий Гогунский), Джоэль Мюррей (Алексей Климушкин), Шон Хейс (Станислав Ярушин), Дэйв Фоли (Арарат Кещян), Чарли Дэй, Альфред Молина, Тайлер Лабайн, Нэйтан Филлион, Обри Пласа, Бобби Мойнахан, Ной Джонстон, Джулия Суини, Бонни Хант, Джон Красински, Билл Хейдер-Описание:
Майк и Салли — самые опытные пугатели в Монстрополисе, но так было далеко не всегда. Когда они встретились впервые, эти монстры терпеть друг друга не могли. «Университет Монстров» — история о том, как наши старые знакомые прошли путь от взаимной неприязни к крепкой дружбе.-Сэмпл | КиноПоиск | IMDb-Качество: BDRip | исх. [Monsters University (2013) Blu-ray CEE 1080p AVC DD5.1.HDClub]
Формат: AVI
Видео: 704x400 (16:9), 23.976 fps, XviD build 65 ~1549 kbps avg, 0.229 bit/pixel
Аудио: 48.0 kHz, AC3 Dolby Digital, 3/2 (L,C,R,l,r) + LFE ch, ~448 kbps | Dub
Субтитры: Отсутствуют
Размер: 1496.68 Mb (1/3 DVD)
-Подробные технические данные
ОбщееПолное имя : A:\Фильмы\MONSTERS UNIVERSITY.BDRip.XviD.1.46Gb.AC3.aviФормат : AVIФормат/Информация : Audio Video InterleaveРазмер файла : 1,46 ГбайтПродолжительность : 1 ч. 44 м.Общий поток : 2006 Кбит/секПрограмма кодирования : VirtualDubMod 1.5.10.2 (build 2540/release)Библиотека кодирования : VirtualDubMod build 2540/release
ВидеоИдентификатор : 0Формат : MPEG-4 VisualПрофиль формата : Advanced Simple@L5Параметр BVOP формата : 1Параметр QPel формата : НетПараметр GMC формата : Без точки переходаПараметр матрицы формата : Default (H.263)Идентификатор кодека : XVIDИдентификатор кодека/Подсказка : XviDПродолжительность : 1 ч. 44 м.Битрейт : 1549 Кбит/секШирина : 704 пикселяВысота : 400 пикселейСоотношение сторон : 16:9Частота кадров : 23,976 кадра/секЦветовое пространство : YUVСубдискретизация насыщенности : 4:2:0Битовая глубина : 8 битТип развёртки : ПрогрессивнаяМетод сжатия : С потерямиБит/(Пиксели*Кадры) : 0.229Размер потока : 1,13 Гбайт (77%)Библиотека кодирования : XviD 65
АудиоИдентификатор : 1Формат : AC-3Формат/Информация : Audio Coding 3Расширение режима : CM (complete main)Параметр Endianness формата : BigИдентификатор кодека : 2000Продолжительность : 1 ч. 44 м.Вид битрейта : ПостоянныйБитрейт : 448 Кбит/секКаналы : 6 каналовРасположение каналов : Front: L C R, Side: L R, LFEЧастота : 48,0 КГцБитовая глубина : 16 битМетод сжатия : С потерямиРазмер потока : 334 Мбайт (22%)Выравнивание : Разделение по промежуткамПродолжительность промежутка : 42 мс. (1,00 видеокадр)Время предзагрузки промежутка : 500 мс.
Скриншоты

_________________
Показать сообщения:    

Текущее время: Сегодня 10:06

Часовой пояс: GMT



Вы не можете начинать темы
Вы не можете отвечать на сообщения
Вы не можете редактировать свои сообщения
Вы не можете удалять свои сообщения
Вы не можете голосовать в опросах
Вы не можете прикреплять файлы к сообщениям
Вы не можете скачивать файлы